<?xml version="1.0" standalone="no"?>
<!DOCTYPE svg PUBLIC "-//W3C//DTD SVG 1.1//EN" "http://www.w3.org/Graphics/SVG/1.1/DTD/svg11.dtd" >
<svg xmlns="http://www.w3.org/2000/svg">
<metadata>
This is a custom SVG webfont generated by Font Squirrel.
Copyright   : Copyright c Mark Simonson 20092010 All rights reserved
Designer    : Mark Simonson
Foundry URL : httpwwwmsstudiocom
</metadata>
<defs>
<font id="webfontY0OL90mP" horiz-adv-x="1116" >
<font-face units-per-em="2048" ascent="1675" descent="-373" />
<missing-glyph horiz-adv-x="500" />
<glyph unicode=" " />
<glyph unicode="!" d="M330 1305h272l-51 -932h-170zM340 0v252h252v-252h-252z" />
<glyph unicode="&#x22;" d="M156 1305h247l-45 -500h-157zM528 1305h248l-45 -500h-158z" />
<glyph unicode="#" d="M0 186v187h186v186h-186v186h186v189h187v-189h186v189h186v-189h187v-186h-187v-186h187v-187h-187v-186h-186v186h-186v-186h-187v186h-186zM373 373h186v186h-186v-186z" />
<glyph unicode="$" d="M-20 373l192 30q37 -190 201 -231v438q-86 37 -129 58q-66 31 -113 75q-49 45 -78 105q-31 61 -30 145q0 129 92 217q92 89 258 111v170h186v-174q78 -14 143 -49q59 -31 109 -84q43 -45 70 -113q29 -70 30 -131l-194 -22q-20 166 -158 208v-374q90 -37 135 -60 q63 -31 117 -82q53 -49 86 -112.5t33 -157.5q0 -66 -25 -125q-23 -55 -74 -109q-43 -47 -116 -79q-68 -31 -156 -43v-170h-186v170q-172 20 -275 127q-104 106 -118 262zM229 995q0 -59 39 -98t105 -70v306q-72 -12 -107 -46q-37 -34 -37 -92zM559 172q78 16 121 55t43 113 t-45 117q-47 43 -119 78v-363z" />
<glyph unicode="%" d="M-25 1073q0 55 21 98q25 53 53 82q31 31 80 54q43 20 100 20q55 0 99 -20q49 -23 80 -54q33 -33 55 -82q20 -43 20 -98t-20 -98q-22 -46 -55.5 -80t-79.5 -55q-43 -20 -99 -21q-57 0 -100 21q-46 22 -80 55q-31 31 -53 80q-21 43 -21 98zM-18 47l837 1303l135 -93 l-835 -1298zM125 1075q0 -43 30.5 -73.5t73.5 -30.5t74 30.5t31 73.5t-31 74t-74 31t-73.5 -31t-30.5 -74zM453 231q0 55 20 99q22 46 55 80q35 35 78 55t101 20q55 0 98 -20q49 -23 82 -55q31 -31 53 -80q20 -43 21 -99q0 -57 -21 -100q-23 -49 -53 -80q-29 -29 -82 -53 q-43 -20 -98 -21q-57 0 -101 21q-45 23 -78 53q-34 34 -55 80q-20 43 -20 100zM602 233q0 -43 31 -73.5t74 -30.5t73.5 30.5t30.5 73.5t-30.5 74t-73.5 31t-74 -31t-31 -74z" />
<glyph unicode="&#x26;" d="M-25 334q0 135 48 215q49 83 116 141q-57 70 -88 143.5t-31 157.5q0 80 27 139q29 63 72 107q39 39 102 66q57 25 127 24q72 0 127 -20q61 -23 104.5 -60t68 -92t24.5 -123q0 -74 -23 -121q-27 -55 -61 -96q-31 -35 -86 -80q-35 -29 -94 -67l284 -269q25 49 43 105 q16 47 33 108l188 -47q-16 -78 -45 -149q-31 -78 -77 -150l157 -145l-129 -148l-149 146q-76 -70 -158 -105q-86 -37 -190 -37q-86 0 -154 27q-72 29 -125 78t-82 111q-29 59 -29 141zM182 358q0 -86 56 -141q53 -53 141 -53q59 0 110 22q49 22 93 62l-314 305h-2 q-41 -43 -61 -86q-23 -46 -23 -109zM227 991q0 -51 11 -98q8 -43 47 -96q25 16 69 49q29 20 58 53q23 25 39 62q14 31 14 75q0 47 -33 76t-76 29q-61 0 -94 -43q-35 -46 -35 -107z" />
<glyph unicode="'" d="M342 1305h248l-45 -500h-158z" />
<glyph unicode="(" d="M188 567q0 143 29 267q31 132 86 251q53 117 139 228q83 108 191 190l127 -127q-92 -72 -164 -164t-121 -198q-49 -104 -74 -219q-27 -123 -26.5 -227.5t26.5 -227.5q25 -115 74 -219q49 -106 121 -198.5t164 -164.5l-127 -127q-108 83 -191 191q-86 111 -139 227 q-55 120 -86 252q-29 123 -29 266z" />
<glyph unicode=")" d="M176 -244q92 72 164 164t121 199q49 104 74 219q27 123 26.5 227.5t-26.5 227.5q-25 115 -74 219q-49 106 -121 198.5t-164 163.5l127 127q102 -80 189 -190q78 -100 139 -228q57 -117 88 -252q29 -123 29 -266t-29 -266q-31 -135 -88 -252q-61 -127 -139 -227 q-86 -111 -189 -191z" />
<glyph unicode="*" d="M14 319l310 148l-310 145l99 174l282 -194l-28 342h198l-28 -342l282 194l99 -174l-310 -145l310 -148l-99 -174l-282 197l28 -342h-198l28 342l-282 -197z" />
<glyph unicode="+" d="M0 385v186h373v373h186v-373h373v-186h-373v-373h-186v373h-373z" />
<glyph unicode="," d="M209 -373l186 559h246l-274 -559h-158z" />
<glyph unicode="-" d="M0 385v186h932v-186h-932z" />
<glyph unicode="." d="M340 0v252h252v-252h-252z" />
<glyph unicode="/" d="M12 -176l766 1542l154 -76l-766 -1542z" />
<glyph unicode="0" d="M-33 653q0 125 29 252q28 123 86 215q61 96 154 150q98 57 231 57t231 -57q92 -53 156 -150q57 -86 86 -215q27 -119 27 -252t-27 -252q-27 -121 -86 -217t-154 -151t-233 -56q-135 0 -231 56q-98 57 -156 151q-59 96 -86 217q-27 119 -27 252zM174 653q0 -92 12 -178 l512 514q-33 66 -90 111q-53 41 -141 41q-143 0 -217 -129q-76 -134 -76 -359zM240 307q33 -61 88 -104q51 -39 139 -39q90 0 145.5 43t87.5 112q35 74 48 158q12 88 12 176q0 84 -12 164z" />
<glyph unicode="1" d="M0 725v207q66 0 133 22q57 18 115 70q51 45 82 115q33 76 32 166h207v-1119h209v-186h-626v186h210v742q-15 -49 -49 -86q-39 -41 -82 -64q-55 -29 -108 -39q-68 -14 -123 -14z" />
<glyph unicode="2" d="M23 856q0 217 118 346q117 125 340 125q83 0 160 -24q78 -25 137 -72q57 -45 92 -119t35 -164q0 -92 -49 -188q-51 -98 -135 -182l-408 -392h383v179h187v-365h-840v195l526 503q70 72 99 131q31 61 30 119q0 47 -20 88q-16 33 -49 59.5t-70 34.5q-45 10 -78 11 q-123 0 -194 -72q-70 -70 -70 -213h-194z" />
<glyph unicode="3" d="M27 410l194 32q10 -131 84 -204.5t191 -73.5q100 0 157 51q59 53 60 139q0 117 -76 166q-80 51 -266 51v187q68 0 125 12q45 10 100 41q43 25 67.5 61.5t24.5 85.5q0 82 -49 132q-51 51 -143 51q-125 0 -189 -66q-66 -70 -65 -213h-197q0 119 33 203q35 88 92 145.5 t141 87.5q78 29 185 29q78 0 157 -27q74 -25 127 -71q51 -47 84 -117q31 -68 31 -154q0 -55 -18 -104q-20 -55 -50 -86q-39 -43 -79 -63q-47 -23 -109 -27q66 -6 121 -35q45 -25 88 -74q33 -37 53 -100q18 -55 19 -115q0 -82 -35 -155q-31 -66 -94 -119q-57 -49 -134 -76 q-74 -27 -161 -27q-94 0 -177 25q-76 23 -143 80q-66 55 -102.5 133t-46.5 195z" />
<glyph unicode="4" d="M0 348v187l477 770h242v-770h213v-187h-213v-162h213v-186h-627v186h209v162h-514zM186 535h328v526z" />
<glyph unicode="5" d="M4 387l197 29q8 -111 73 -183q63 -70 187 -69q61 0 112 22q53 23 84 58q35 37 54 88q18 49 18 106q0 129 -67.5 203t-178.5 74q-70 0 -131 -31q-63 -33 -96 -96h-207v717h817v-187h-610v-338q92 121 268 121q86 0 160 -32.5t133 -92.5q55 -55 90 -145q35 -88 35 -193 q0 -100 -39 -180q-43 -90 -106 -147q-68 -61 -154 -99q-82 -35 -182 -35q-96 0 -174 27q-72 25 -140 82q-63 53 -98 127t-45 174z" />
<glyph unicode="6" d="M-8 651q0 135 33 254q35 123 100 217q66 92 170 150q102 55 240 55q106 0 186 -29q90 -33 151 -88l-112 -151q-51 47 -105 63q-55 18 -120 19q-86 0 -150 -33q-68 -35 -111 -96q-45 -63 -65 -146q-23 -86 -23 -184q31 106 117 170q88 66 227 66q88 0 160 -35 q74 -35 133 -99q57 -59 92 -149q33 -84 33 -191q0 -113 -34.5 -194.5t-98.5 -145.5q-59 -59 -147 -94q-84 -33 -183 -33q-150 0 -243 56q-92 53 -150 149q-57 94 -78 215q-22 129 -22 254zM209 455q0 -57 16 -113q14 -49 51 -92t86 -64q55 -23 125 -22q111 0 183 74 q72 76 71 206q0 121 -67.5 205t-194.5 84q-123 0 -196 -76q-74 -76 -74 -202z" />
<glyph unicode="7" d="M49 899v406h883v-187q-119 -129 -199 -252q-78 -121 -119 -245.5t-57 -278.5q-16 -152 -18 -342h-211q3 181 24 332q20 150 72 284q49 135 129 256q74 113 197 246h-517v-219h-184z" />
<glyph unicode="8" d="M-10 367q0 45 20 106q18 57 55 102.5t89 75.5q49 29 116 39q-53 6 -98 35q-37 23 -72 70q-33 43 -47 86q-16 49 -16 88q0 86 35 155q31 63 94 113q57 45 137 67.5t162 22.5t162 -22.5t137 -67.5q63 -49 94 -113q35 -70 35 -155q0 -39 -16.5 -88.5t-45.5 -85.5 q-35 -43 -73 -70q-45 -29 -101 -35q63 -8 115 -39q55 -33 90 -76t58 -102q20 -53 20 -106q0 -100 -37 -174q-35 -70 -102 -121q-66 -51 -152 -72q-90 -23 -184 -23q-96 0 -186 23q-86 20 -152 72q-66 49 -100 121q-37 74 -37 174zM197 379q0 -55 22.5 -96t57 -68t85.5 -39 q49 -12 102.5 -12t102.5 12q51 12 86 39t57.5 68t22.5 96q0 59 -22 100q-23 43 -58 66q-37 25 -86 37t-102 12t-102.5 -12.5t-86.5 -36.5q-35 -23 -57 -66q-22 -41 -22 -100zM244 956q0 -83 55 -129q57 -47 166 -47q111 0 168 47q53 45 53 129q0 86 -59 136q-57 49 -162 49 t-164 -49q-57 -50 -57 -136z" />
<glyph unicode="9" d="M-16 860q0 109 36 195q39 90 96.5 147.5t147.5 91.5q84 33 182 33q143 0 241.5 -57.5t152.5 -149.5q57 -98 78 -215q23 -125 22 -252q0 -137 -33 -256q-33 -121 -100 -215q-66 -92 -170 -149q-101 -55 -240 -56q-104 0 -184 29q-92 33 -154 88l113 152q53 -45 104 -64 q55 -18 121 -18q86 0 150 33q66 35 108 96q47 68 68 145q23 86 22 185q-31 -106 -116 -170q-88 -66 -228 -66q-83 0 -159 37q-74 35 -133 98q-53 55 -91 150q-34 88 -34 188zM190 860q0 -123 68 -207q68 -82 195 -82q123 0 196 76q74 77 74 203q0 57 -16.5 112.5t-49.5 94.5 q-34 40 -86 61q-55 23 -127 23q-113 0 -182 -74q-72 -76 -72 -207z" />
<glyph unicode=":" d="M340 0v252h252v-252h-252zM340 680v252h252v-252h-252z" />
<glyph unicode=";" d="M209 -373l186 559h246l-274 -559h-158zM340 680v252h252v-252h-252z" />
<glyph unicode="&#x3c;" d="M199 479l512 512l118 -121l-391 -391l391 -391l-118 -121z" />
<glyph unicode="=" d="M0 199v186h932v-186h-932zM0 571v187h932v-187h-932z" />
<glyph unicode="&#x3e;" d="M102 88l392 391l-392 391l119 121l512 -512l-512 -512z" />
<glyph unicode="?" d="M168 965q18 170 114.5 266t274.5 96q168 0 258 -88q94 -90 94 -235q0 -76 -26 -130q-31 -63 -66 -102q-45 -51 -86 -90q-59 -55 -86 -86q-37 -41 -65 -100q-27 -53 -27 -123h-213q0 86 27 147q28 65 67 117q37 49 86 94l88 88q41 45 68 88q27 45 26 99q0 68 -38 100 q-41 35 -105 35q-98 0 -143 -54q-43 -51 -56 -151zM340 0v252h252v-252h-252z" />
<glyph unicode="@" d="M-27 651q0 88 13 174q12 82 37 158q25 72 65 139q39 61 94 109q51 43 129 69q76 27 162 27q84 0 164 -27q72 -25 127 -69q59 -49 96 -107q39 -59 64 -131q29 -80 39 -151q12 -80 12 -158q0 -66 -12 -137q-12 -70 -41 -127.5t-76 -91.5q-49 -37 -121 -37q-25 0 -55 10 q-18 6 -47 31q-18 16 -33 47q-14 33 -15 57v10q-9 -34 -24 -61q-12 -23 -39 -49q-18 -18 -51 -33q-27 -12 -62 -12q-57 0 -102 28q-39 25 -66 78q-25 51 -36 109q-10 51 -11 125q0 70 17 141q14 66 49 119q33 51 80 82t106 31q18 0 37 -6.5t37 -18.5t31 -31q14 -23 20 -45 v82h162v-496q0 -29 10 -45q8 -14 27 -14q23 0 37 21q20 27 26 53q12 43 15 82q4 61 4 98q0 111 -21 201q-23 98 -63 166q-45 74 -113 114q-71 43 -172 43q-100 0 -170 -43t-115 -118q-45 -78 -63 -177q-18 -100 -19 -219q0 -115 19 -217q18 -98 63 -176q43 -74 115 -117 q74 -45 170 -45q76 0 148 31q59 27 118 78l60 -99q-129 -129 -326 -129q-90 0 -164 25q-68 23 -127 72t-96 108.5t-63 139.5q-25 74 -37 157q-13 82 -13 172zM350 633q0 -43 8 -92q6 -35 19 -58q12 -22 31 -30q20 -10 41 -11q23 0 45 18.5t36 45.5q10 18 23 63q8 31 8 70 v158q-18 39 -43 53q-27 16 -51 16q-29 0 -51 -18t-37 -49q-14 -29 -21 -74q-8 -57 -8 -92z" />
<glyph unicode="A" d="M-59 0l407 1305h238l407 -1305h-217l-94 311h-432l-92 -311h-217zM305 494h322l-160 538z" />
<glyph unicode="B" d="M49 0v1305h393q80 0 160 -13q78 -12 143 -51q59 -37 101 -104q39 -66 39 -172q0 -94 -51 -181q-47 -82 -152 -118q127 -41 186 -109q61 -70 62 -199q0 -178 -121 -268t-344 -90h-416zM256 186h209q123 0 192 47q68 45 68 145.5t-68 145.5q-70 47 -192 47h-209v-385z M256 758h186q41 0 84 6q41 6 76 24.5t57 57.5q20 35 20.5 92t-20.5 92q-23 39 -57.5 57.5t-75.5 24.5q-43 6 -84 6h-186v-360z" />
<glyph unicode="C" d="M-20 653q0 133 26 252q28 123 86 215q59 94 152 150q96 57 225 57q51 0 86 -10q47 -14 84 -35q39 -23 66 -55q29 -37 40 -76v154h187v-494h-187q0 59 -16 121q-16 63 -47 104q-35 49 -84 76q-51 29 -117 29q-88 0 -143 -43q-57 -45 -90 -113q-39 -80 -49 -158 q-12 -86 -12.5 -174t12.5 -176q12 -84 47 -158q35 -72 90 -112q57 -43 145 -43q125 0 195 82q72 86 110 217l166 -64q-27 -102 -63 -174q-41 -78 -98 -133q-59 -57 -134 -86q-72 -29 -176 -29q-137 0 -231 56q-92 53 -156 151q-59 94 -88 217q-26 119 -26 252z" />
<glyph unicode="D" d="M49 0v1305h424q133 0 229 -54q94 -51 156 -141q59 -86 88 -209q29 -121 29 -248q0 -135 -27 -250q-29 -123 -88 -208q-61 -90 -155 -142q-96 -53 -232 -53h-424zM256 186h217q141 0 217 121q78 125 78 346q0 225 -78 346q-76 119 -217 119h-217v-932z" />
<glyph unicode="E" d="M49 0v1305h834v-187h-627v-360h489v-187h-489v-385h627v-186h-834z" />
<glyph unicode="F" d="M49 0v1305h834v-187h-627v-360h489v-187h-489v-571h-207z" />
<glyph unicode="G" d="M-20 651q0 133 26 252q29 123 88 217q61 94 156 150q98 57 231 57q47 0 80 -10q39 -12 78 -34.5t66 -55.5q29 -37 40 -76v154h187v-463h-187q0 55 -20 116q-16 51 -53 95q-35 41 -84 65q-45 23 -107 23q-88 0 -143 -43t-90 -115q-39 -80 -49 -158q-12 -86 -13 -174 q0 -90 13 -176q12 -82 47 -156q35 -72 90 -112q57 -43 145 -43q127 0 205 82q80 82 107 250h-275v186h465v-33q0 -139 -27 -254q-31 -131 -86 -215q-61 -92 -157 -147q-94 -55 -231.5 -55.5t-231.5 55.5q-92 53 -156 149q-59 90 -88 215q-26 119 -26 254z" />
<glyph unicode="H" d="M49 0v1305h207v-547h420v547h207v-1305h-207v571h-420v-571h-207z" />
<glyph unicode="I" d="M156 0v186h206v932h-206v187h626v-187h-213v-932h213v-186h-626z" />
<glyph unicode="J" d="M-2 342l186 70q27 -115 95 -183q66 -66 176 -65q66 0 110.5 28.5t67 71.5t33.5 107q10 68 10 127v807h207v-807q0 -250 -104.5 -385.5t-323.5 -135.5q-176 0 -291 91q-121 94 -166 274z" />
<glyph unicode="K" d="M49 0v1305h207v-512l406 512h266l-455 -541l453 -764h-242l-342 608l-86 -102v-506h-207z" />
<glyph unicode="L" d="M49 0v1305h207v-1119h627v-186h-834z" />
<glyph unicode="M" d="M49 0v1305h246l170 -590l170 590h248v-1305h-207v883l-131 -469h-160l-129 469v-883h-207z" />
<glyph unicode="N" d="M49 0v1305h260l367 -899v899h207v-1305h-240l-387 946v-946h-207z" />
<glyph unicode="O" d="M-33 653q0 125 29 252q28 123 86 215q61 96 154 150q98 57 231 57t231 -57q92 -53 156 -150q57 -86 86 -215q27 -119 27 -252t-27 -252q-27 -121 -86 -217t-154 -151t-233 -56q-135 0 -231 56q-98 57 -156 151q-59 96 -86 217q-27 119 -27 252zM174 653q0 -72 14 -176 q12 -90 45 -158q33 -70 88.5 -112.5t145.5 -42.5t145.5 43t87.5 112q35 74 48 158q12 88 12 176t-12 174q-12 84 -48 158q-35 72 -90 113q-57 43 -143 43q-143 0 -217 -129q-76 -134 -76 -359z" />
<glyph unicode="P" d="M49 0v1305h430q213 0 334 -99q119 -98 119 -291q0 -199 -119 -293t-332 -94h-225v-528h-207zM256 715h225q111 0 178 51q66 49 66 152q0 100 -66 149q-68 51 -178 51h-225v-403z" />
<glyph unicode="Q" d="M-33 653q0 125 29 252q28 123 86 215q61 96 154 150q98 57 231 57t231 -57q92 -53 156 -150q57 -86 86 -215q27 -119 27 -252q0 -129 -21 -233q-20 -109 -71.5 -201t-126.5 -153q-78 -61 -187 -80q8 -96 82 -136q70 -37 205 -36q6 0 18.5 1t20.5 1h45v-185q-37 -4 -55 -4 h-52q-203 0 -327 92q-127 92 -152 273q-102 25 -176 86q-68 55 -117 151q-43 82 -65 199q-21 102 -21 225zM174 653q0 -72 14 -176q12 -90 45 -158q33 -70 88.5 -112.5t145.5 -42.5t145.5 43t87.5 112q35 74 48 158q12 88 12 176t-12 174q-12 84 -48 158q-35 72 -90 113 q-57 43 -143 43q-143 0 -217 -129q-76 -134 -76 -359z" />
<glyph unicode="R" d="M49 0v1305h430q213 0 334 -99q119 -98 119 -291q0 -90 -27 -151q-31 -74 -74 -113q-53 -49 -114 -76q-63 -27 -139 -36l372 -539h-262l-338 528h-94v-528h-207zM256 715h223q113 0 180 51q66 49 66 152q0 100 -66 149q-68 51 -180 51h-223v-403z" />
<glyph unicode="S" d="M27 0v426h186q0 -61 23 -113q20 -45 59 -82q35 -33 86 -51q49 -18 104 -18q92 0 149.5 43t57.5 137q0 51 -18 84q-23 43 -49 63q-29 23 -80 48q-49 23 -107 43q-71 25 -141 55q-74 31 -127 74q-59 47 -92 108q-35 66 -35 162q0 86 31 151q29 61 84 107q57 47 123 68 q74 23 147 22q86 0 153.5 -39t100.5 -100v117h186v-406h-186q0 117 -61.5 180.5t-161.5 63.5q-94 0 -150 -41q-59 -43 -59 -119q0 -37 16 -65q18 -33 45 -52q39 -27 74 -41q8 -4 45 -19l59 -24q66 -23 148 -59q74 -35 131 -82q59 -49 94 -115q37 -68 37 -168 q0 -92 -30.5 -161.5t-82.5 -118.5q-55 -53 -124 -76q-74 -25 -156 -25q-94 0 -166 33q-78 35 -127 109v-119h-186z" />
<glyph unicode="T" d="M0 829v476h930v-476h-185v289h-176v-932h207v-186h-620v186h206v932h-178v-289h-184z" />
<glyph unicode="U" d="M49 467v838h207v-840q0 -51 6 -103q6 -47 29 -96q23 -47 63 -73q45 -29 111 -29q63 0 108 29q43 29 66 71q25 49 31 98q6 51 6 103v840h207v-840q0 -113 -25 -201q-25 -90 -76 -153q-53 -66 -131 -99q-82 -35 -186 -35q-106 0 -186 35q-77 34 -129 99q-51 63 -76 153 q-25 92 -25 203z" />
<glyph unicode="V" d="M-59 1305h217l309 -1033l307 1033h217l-407 -1305h-236z" />
<glyph unicode="W" d="M-63 1305h215l120 -879l95 506h198l92 -506l123 879h215l-202 -1305h-213l-115 563l-113 -563h-213z" />
<glyph unicode="X" d="M-23 0v186h113l254 473l-250 459h-94v187h414v-187h-84l133 -289l135 289h-82v187h416v-187h-101l-249 -459l254 -473h116v-186h-426v186h74l-137 295l-137 -295h73v-186h-422z" />
<glyph unicode="Y" d="M-20 1118v187h411v-187h-90l166 -383l164 383h-90v187h411v-187h-94l-289 -586v-346h209v-186h-624v186h208v346l-288 586h-94z" />
<glyph unicode="Z" d="M49 0v184l584 934h-397v-284h-187v471h817v-187l-567 -932h401v287h183v-473h-834z" />
<glyph unicode="[" d="M373 -373v1864h434v-186h-248v-1491h248v-187h-434z" />
<glyph unicode="\" d="M12 1290l154 76l766 -1542l-154 -76z" />
<glyph unicode="]" d="M125 -186h248v1491h-248v186h434v-1864h-434v187z" />
<glyph unicode="^" d="M-59 559l401 746h250l403 -746h-227l-301 561l-297 -561h-229z" />
<glyph unicode="_" d="M0 0h932v-186h-932v186z" />
<glyph unicode="`" d="M227 1225l117 180l404 -287l-89 -137z" />
<glyph unicode="a" d="M-4 268q0 80 45 144q43 61 115 102q70 39 163 61q88 20 189 21q66 0 90.5 -2t77.5 -6v37q0 70 -58 108q-55 37 -147 37q-94 0 -172 -22q-92 -27 -164 -70l-84 162q96 55 197 84q104 31 223 30q84 0 150 -16q74 -18 131 -57q63 -43 94 -101q35 -63 35 -155v-625h-205v137 q-49 -76 -144 -119q-90 -41 -206 -41q-68 0 -129.5 18.5t-104.5 55.5q-41 35 -69 92q-27 53 -27 125zM201 279q0 -117 178 -117q59 0 114.5 16.5t94.5 42.5q43 31 65 66q23 37 23 86v35q-55 10 -92 10h-76q-154 0 -229 -39q-78 -41 -78 -100z" />
<glyph unicode="b" d="M49 0v1305h207v-457q59 53 118.5 79.5t139.5 26.5q92 0 168 -36.5t131 -100.5q53 -63 86 -155q33 -94 33 -197t-33 -197q-33 -92 -86 -155q-55 -63 -131 -101q-72 -35 -168 -35q-80 0 -139 27q-55 25 -119 82v-86h-207zM256 248q37 -41 94 -62q61 -23 111 -22 q117 0 190.5 84t73.5 217q0 137 -74 219q-74 84 -190 84q-55 0 -111 -20q-53 -20 -94 -64v-436z" />
<glyph unicode="c" d="M-20 465q0 108 36 197q41 100 95 155q61 63 143 100t174 37q96 0 168 -41t102 -116v135h185v-434h-185q0 123 -67.5 196.5t-175.5 73.5q-45 0 -90 -18q-53 -20 -89 -54q-39 -37 -63 -94q-27 -63 -27 -137q0 -80 25 -135q25 -53 65 -92q39 -37 97 -56q55 -18 114 -18 q100 0 175 31q72 31 129 84l106 -146q-88 -88 -190 -123q-96 -33 -215 -33q-115 0 -213 35q-94 33 -162 99q-61 57 -101 153q-36 88 -36 201z" />
<glyph unicode="d" d="M-2 464.5q0 107.5 31 197.5q31 88 88 155q53 61 133 101q77 37 166 36q80 0 139 -26q57 -27 121 -80v270h-180v187h387v-1305h-207v86q-70 -59 -121 -82q-59 -27 -139 -27q-94 0 -166 35q-80 39 -133 101q-57 68 -88 155q-31 89 -31 196.5zM205 465q0 -133 73.5 -217 t190.5 -84q49 0 111 22q59 23 96 62v436q-39 43 -96 64q-55 20 -111 20q-117 0 -190 -84q-74 -82 -74 -219z" />
<glyph unicode="e" d="M-20 465q0 108 36 197q39 94 99 153q66 66 155.5 102.5t198.5 36.5q115 0 205 -39q98 -43 157 -110q66 -74 103 -180q37 -104 37 -238h-781q16 -96 91 -160q76 -63 206 -63q100 0 175 31q72 31 129 84l106 -146q-89 -89 -190 -123q-98 -33 -220 -33q-115 0 -200 35 q-98 39 -162 101q-66 63 -107 153q-38 86 -38 199zM199 569h538q-14 86 -94 144q-78 55 -174 55q-100 0 -176 -55q-80 -58 -94 -144z" />
<glyph unicode="f" d="M156 0v186h206v559h-206v187h206q0 190 117 293q119 102 320 102q18 0 63 -4l70 -6v-182q-61 6 -109 6q-88 0 -129 -11q-45 -10 -76 -38q-31 -27 -38 -66q-10 -45 -11 -94h363v-187h-363v-559h213v-186h-626z" />
<glyph unicode="g" d="M-2 477q0 98 31 185q31 88 88 153q55 66 133 103q77 37 166 36q80 0 139 -26q57 -27 121 -80v84h207v-922q0 -100 -33 -172q-35 -76 -92 -127q-53 -49 -140 -78q-82 -29 -180 -28q-244 0 -415 147l98 160q145 -123 317 -123q106 0 172 53.5t66 163.5v100 q-61 -53 -123 -81q-55 -27 -137 -27q-84 0 -166 39q-78 37 -133 102q-57 66 -88 154q-31 86 -31 184zM205 477q0 -59 20 -117q18 -49 54 -92q33 -39 84 -61.5t104 -22.5q51 0 113 23q57 20 96 63v414q-39 43 -96 64q-55 20 -113 20q-117 0 -191 -82q-71 -80 -71 -209z" />
<glyph unicode="h" d="M49 0v1305h207v-607q31 121 115 188.5t207 67.5q143 0 225 -94q80 -92 80 -285v-575h-207v575q0 104 -41 150q-41 43 -119 43q-115 0 -188 -92q-72 -90 -72 -258v-418h-207z" />
<glyph unicode="i" d="M156 0v186h206v559h-206v187h413v-746h213v-186h-626zM340 1053v252h252v-252h-252z" />
<glyph unicode="j" d="M0 -236l123 138q45 -55 100 -84q51 -27 121 -27q106 0 155.5 57.5t49.5 151.5v745h-211v187h418v-932q0 -90 -31 -164q-31 -76 -84 -125q-53 -51 -129 -78q-80 -29 -168 -28q-212 -1 -344 159zM526 1053v252h252v-252h-252z" />
<glyph unicode="k" d="M49 0v1305h207v-768l373 395h284l-430 -428l447 -504h-268l-312 377l-94 -96v-281h-207z" />
<glyph unicode="l" d="M158 0v186h204v932h-204v187h411v-1119h215v-186h-626z" />
<glyph unicode="m" d="M0 0v932h209v-135q20 76 65 116.5t115 40.5q61 0 100 -36q41 -37 56 -101q29 61 73 103q39 35 115 34q94 0 148 -71q51 -70 51 -213v-670h-207v639q0 61 -14 98q-12 31 -47 31q-63 0 -78 -70q-16 -76 -17 -202v-496h-207v639q0 70 -14 98q-15 31 -49 31q-61 0 -76 -70 q-16 -76 -16 -202v-496h-207z" />
<glyph unicode="n" d="M49 0v932h207v-234q31 121 115 188.5t207 67.5q143 0 225 -94q80 -92 80 -285v-575h-207v575q0 104 -41 150q-41 43 -119 43q-115 0 -188 -92q-72 -90 -72 -258v-418h-207z" />
<glyph unicode="o" d="M-20 465q0 104 34.5 196.5t98.5 155.5q61 61 155 101q88 37 199 36.5t201 -36.5q94 -39 155 -101q63 -63 98 -155.5t35 -196.5q0 -106 -34 -199q-34 -89 -99 -153q-61 -61 -155 -101q-84 -35 -201 -35q-115 0 -199 35q-94 39 -155 101q-65 65 -99 153q-34 93 -34 199z M186 465q0 -66 19 -121q18 -53 55 -94q41 -43 88 -64q55 -23 119 -22q61 0 117 22q51 20 90 64q41 43 57 94q18 55 19 121q0 63 -19 119q-18 57 -57 98q-35 37 -90 63q-47 23 -117 23q-72 0 -119 -23q-51 -25 -88 -63q-35 -39 -55 -98q-19 -56 -19 -119z" />
<glyph unicode="p" d="M49 -373v1305h207v-84q59 53 118.5 79.5t139.5 26.5q92 0 168 -36.5t131 -100.5q53 -63 86 -155q33 -94 33 -197t-33 -197q-33 -92 -86 -155q-55 -63 -131 -101q-72 -35 -168 -35q-80 0 -139 27q-55 25 -119 82v-459h-207zM256 250q41 -43 94 -64q61 -23 111 -22 q117 0 190.5 84t73.5 217q0 137 -74 219q-74 84 -190 84q-55 0 -111 -20q-53 -20 -94 -64v-434z" />
<glyph unicode="q" d="M-2 464.5q0 107.5 31 197.5q31 88 88 155q53 61 133 101q77 37 166 36q80 0 139 -26q57 -27 121 -80v84h207v-1305h-207v459q-70 -59 -121 -82q-59 -27 -139 -27q-94 0 -166 35q-80 39 -133 101q-57 68 -88 155q-31 89 -31 196.5zM205 465q0 -133 73.5 -217t190.5 -84 q49 0 111 22q59 23 96 62v436q-39 43 -96 64q-55 20 -111 20q-117 0 -190 -84q-74 -82 -74 -219z" />
<glyph unicode="r" d="M0 0v186h211v559h-211v187h418v-234q51 139 151 199q96 57 236 57q39 0 90 -10q46 -9 92 -31l-78 -202q-41 20 -75.5 28.5t-88.5 8.5q-70 0 -129 -21q-61 -22 -104 -61q-45 -43 -70 -103q-25 -61 -24 -145v-232h209v-186h-627z" />
<glyph unicode="s" d="M-10 111l86 170q106 -61 200 -91q88 -27 185 -26q127 0 182 26q57 27 57 74q0 20 -16 36.5t-53 29t-99 24.5q-31 6 -149 27q-94 16 -137 29q-57 16 -113 51q-45 29 -78 80q-31 49 -30 123q0 78 38 131q41 57 101 92q57 35 141 51q82 16 156 16q104 0 213 -28 q100 -27 182 -82l-82 -160q-72 45 -151 66q-74 18 -162 18q-23 0 -76 -4q-39 -2 -76 -16q-34 -12 -55 -31q-23 -18 -23 -47q0 -35 66 -60q68 -27 223 -47q88 -12 158 -31q68 -18 121 -49q51 -31 79.5 -82t28.5 -122q0 -88 -41 -148q-39 -57 -106 -92q-74 -39 -144 -49 q-80 -12 -155 -13q-126 0 -252 37q-133 40 -219 97z" />
<glyph unicode="t" d="M0 745v187h211v373h207v-373h391v-187h-391v-403q0 -88 45 -133t115 -45q88 0 131 51q41 51 51 123l182 -41q-14 -147 -115 -234q-98 -86 -249 -86q-84 0 -150 27q-70 29 -117 76q-45 45 -73 115q-27 66 -27 147v403h-211z" />
<glyph unicode="u" d="M49 356v576h207v-576q0 -104 41 -149q39 -43 119 -43q113 0 186.5 92t73.5 258v418h207v-932h-207v233q-31 -121 -115 -188q-82 -68 -207 -68q-145 0 -225 92t-80 287z" />
<glyph unicode="v" d="M0 932h221l246 -705l244 705h221l-344 -932h-244z" />
<glyph unicode="w" d="M-29 932h203l82 -623l100 623h219l101 -623l82 623h203l-140 -932h-256l-98 561l-100 -561h-256z" />
<glyph unicode="x" d="M-20 0v186h135l209 287l-199 272h-125v187h420v-187h-66l113 -180l115 180h-74v187h424v-187h-121l-199 -272l209 -287h133v-186h-442v186h82l-127 195l-125 -195h76v-186h-438z" />
<glyph unicode="y" d="M-6 932h215l256 -705l237 705h222l-402 -1114q-47 -121 -131 -166t-205 -45q-47 0 -88 8q-53 10 -98 27l43 190q49 -16 80 -22q37 -6 63 -7q94 0 127 82l37 90z" />
<glyph unicode="z" d="M49 0v184l531 561h-349v-188h-182v375h815v-187l-532 -559h368v185h183v-371h-834z" />
<glyph unicode="{" d="M186 465v186q96 0 140 23q47 25 47 108v426q0 63 20 113q20 51 58 88q43 43 88 61q49 20 112 21h154v-186h-154q-55 0 -73 -21q-18 -23 -19 -76v-426q0 -96 -57 -153q-55 -55 -131 -72q39 -6 71 -25q37 -20 58 -45q31 -39 43 -69q16 -43 16 -84v-426q0 -52 19 -74 q18 -23 73 -22h154v-185h-154q-63 0 -112 21q-51 20 -88 57q-35 35 -58 90q-20 49 -20 113v426q0 82 -47.5 106.5t-139.5 24.5z" />
<glyph unicode="|" d="M373 -186v1677h186v-1677h-186z" />
<glyph unicode="}" d="M127 -188h154q55 0 73 22t19 74v430q0 41 16 84q12 31 43 70q18 23 60 45q35 18 69 24q-76 16 -131 72q-57 57 -57 153v426q0 55 -18.5 74t-73.5 19h-154v186h154q63 0 112 -21q53 -20 88 -57t58 -88q20 -49 20 -113v-426q0 -84 47 -108q43 -23 139 -23v-186 q-94 0 -139 -25q-47 -25 -47 -106v-430q0 -63 -20 -113q-23 -55 -58 -90q-35 -37 -88 -57q-49 -20 -112 -21h-154v185z" />
<glyph unicode="~" d="M-4 266q6 94 27 166q23 82 61 135q37 53 96 88q53 33 131 33q82 0 127 -39q47 -41 76 -88l51 -86q23 -41 56 -41q53 0 77 58q27 61 41 190l197 -14q-6 -94 -27 -166q-23 -78 -61 -133q-41 -55 -96 -90q-53 -33 -131 -33q-82 0 -127 39q-41 35 -74 88q-49 80 -53 86 q-20 39 -56 39q-53 0 -78 -56q-25 -57 -40 -190z" />
<glyph unicode="&#xa0;" />
<glyph unicode="&#xa2;" d="M-20 653q0 194 104 320q104 127 289 157v175h186v-168q92 -8 176 -43q90 -37 162 -109l-106 -145q-49 45 -101 69q-66 31 -131 39v-592q78 12 131 41q59 31 101 70l106 -145q-76 -76 -162 -111q-84 -35 -176 -43v-168h-186v176q-184 34 -289 160q-104 127 -104 317z M186 653.5q0 -118.5 52 -184.5q55 -72 135 -98v565q-80 -27 -135 -98q-52 -66 -52 -184.5z" />
<glyph unicode="&#xa3;" d="M0 0v186h61q33 0 58 13q20 10 39 32q16 20 22 43q6 25 6 48v237h-186v186h186v230q0 80 27 141q29 68 74 113q43 43 106 71q59 27 129 27q119 0 207 -65q86 -66 109 -187l-187 -45q-31 111 -129 111q-57 0 -94 -37q-35 -35 -35 -129v-230h187v-186h-187v-186 q0 -61 -26 -115q-25 -49 -66 -72h172q74 0 117 9q51 10 84 28q43 25 65 56q28 37 56 92l170 -90q-63 -137 -197 -211q-127 -70 -295 -70h-473z" />
<glyph unicode="&#xa5;" d="M0 373v186h365v4l-84 182h-281v187h197l-168 373h215l225 -555l223 555h215l-170 -373h195v-187h-279l-82 -182v-4h361v-186h-361v-373h-206v373h-365z" />
<glyph unicode="&#xa9;" d="M0 745q0 115 43 218q43 100 121 178t178 121t219 43q117 0 213 -41q100 -43 176 -119q77 -77 123 -178q45 -98 45 -222q0 -111 -43 -213t-114 -176q-74 -76 -177 -123q-104 -47 -223 -47q-111 0 -209 39q-102 41 -180 115q-80 76 -125 176q-47 104 -47 229zM66 745.5 q0 -108.5 38 -194.5q41 -92 105 -156q68 -68 158 -104q94 -39 194 -39q96 0 191 39q90 37 157 104q63 63 105 156q39 86 39 194q0 101 -37 191q-37 88 -105 156q-66 66 -157.5 106.5t-192.5 40.5q-98 0 -192 -39q-90 -37 -158 -104.5t-107 -155.5q-38 -86 -38 -194.5z M201 748q0 76 24 141q25 63 72 115q49 51 113 77q70 29 153 29q206 0 301 -147l-141 -99q-45 82 -160 82q-84 0 -131 -55q-47 -57 -47 -143q0 -88 45 -142q47 -57 133 -57q115 0 160 82l141 -99q-95 -147 -301 -147q-82 0 -147 27q-72 29 -115 75q-47 51 -74 115 q-26 66 -26 146z" />
<glyph unicode="&#xad;" d="M0 385v186h932v-186h-932z" />
<glyph unicode="&#xae;" d="M0 932q0 117 43 217t121 178t178 121t219 43q117 0 213 -41q100 -43 176 -119q77 -77 123 -178q45 -98 45 -221q0 -113 -43 -213q-45 -104 -114 -178q-70 -72 -177 -121q-104 -47 -223 -47q-104 0 -209 41q-106 43 -180 112q-80 76 -125 176q-47 105 -47 230zM66 931.5 q0 -108.5 38 -194.5q43 -96 105 -157q68 -68 158 -105q88 -37 194 -37q101 0 191 37t157 105q61 61 105 157q39 86 39 195q0 100 -37 188q-37 90 -105 158q-68 70 -157 108q-86 39 -193 39q-98 0 -192.5 -38.5t-157.5 -102.5q-66 -66 -107 -158q-38 -86 -38 -194.5zM328 596 v676h268q52 0 98 -12q39 -10 82 -43q37 -27 58 -70q20 -41 20 -100q0 -84 -29 -129q-33 -53 -112 -89l153 -233h-207l-122 227h-35v-227h-174zM502 965h94q43 0 63 24q23 27 23 58q0 43 -23 65q-20 20 -63 21h-94v-168z" />
<glyph unicode="&#xb4;" d="M190 1118l404 287l117 -180l-432 -244z" />
<glyph unicode="&#x2000;" horiz-adv-x="749" />
<glyph unicode="&#x2001;" horiz-adv-x="1501" />
<glyph unicode="&#x2002;" horiz-adv-x="749" />
<glyph unicode="&#x2003;" horiz-adv-x="1501" />
<glyph unicode="&#x2004;" horiz-adv-x="499" />
<glyph unicode="&#x2005;" horiz-adv-x="374" />
<glyph unicode="&#x2006;" horiz-adv-x="249" />
<glyph unicode="&#x2007;" horiz-adv-x="249" />
<glyph unicode="&#x2008;" horiz-adv-x="186" />
<glyph unicode="&#x2009;" horiz-adv-x="299" />
<glyph unicode="&#x200a;" horiz-adv-x="81" />
<glyph unicode="&#x2010;" d="M0 385v186h932v-186h-932z" />
<glyph unicode="&#x2011;" d="M0 385v186h932v-186h-932z" />
<glyph unicode="&#x2012;" d="M0 385v186h932v-186h-932z" />
<glyph unicode="&#x2013;" d="M0 385v186h932v-186h-932z" />
<glyph unicode="&#x2014;" d="M-92 385v186h1118v-186h-1118z" />
<glyph unicode="&#x2018;" d="M373 680v266q0 71 18 135q16 59 64 113q45 51 114 82q66 29 176 29v-172q-61 0 -100 -13q-35 -10 -63 -39q-25 -25 -33 -57q-10 -37 -10 -78v-14h206v-252h-372z" />
<glyph unicode="&#x2019;" d="M186 680v172q119 0 162 51q45 55 45 135v15h-207v252h373v-267q0 -68 -18.5 -133t-63.5 -117q-43 -49 -115 -79q-65 -29 -176 -29z" />
<glyph unicode="&#x201c;" d="M0 680v266q0 71 18 135q16 59 64 113q45 51 115 82q66 29 176 29v-172q-61 0 -101 -13q-35 -10 -63 -39q-25 -25 -33 -57q-10 -37 -10 -78v-14h207v-252h-373zM559 680v266q0 71 19 135q18 63 61 113q43 51 117 82q66 29 176 29v-172q-59 0 -101 -13q-35 -10 -63 -39 q-23 -25 -33 -57q-10 -37 -10 -78v-14h207v-252h-373z" />
<glyph unicode="&#x201d;" d="M0 680v172q121 0 164 51q43 52 43 135v15h-207v252h373v-267q0 -68 -19 -133q-20 -70 -61 -117t-117 -79q-65 -29 -176 -29zM559 680v172q121 0 164 51q43 52 43 135v15h-207v252h373v-267q0 -68 -19 -133q-20 -70 -61 -117t-117 -79q-65 -29 -176 -29z" />
<glyph unicode="&#x2022;" d="M186 559q0 82 29 145.5t82 116.5q49 49 116.5 80t145.5 31t145.5 -31t116.5 -80t80 -116.5t31 -145.5t-31 -145.5t-80 -116.5q-53 -53 -116.5 -82t-145.5 -29t-145.5 29t-116.5 82t-82 116.5t-29 145.5z" />
<glyph unicode="&#x2026;" d="M-33 0v252h252v-252h-252zM340 0v252h252v-252h-252zM713 0v252h252v-252h-252z" />
<glyph unicode="&#x202f;" horiz-adv-x="299" />
<glyph unicode="&#x205f;" horiz-adv-x="374" />
<glyph unicode="&#x20ac;" d="M0 397v174h152q-2 14 -2 41v41v41q0 25 2 39h-152v174h172q14 82 47 164q31 77 80 135q49 59 114.5 90t149.5 31q80 0 146 -31q59 -29 110 -86q49 -55 80 -133q33 -80 53 -174l-182 -37q-23 133 -70 207q-43 68 -135 68q-82 0 -125 -68q-41 -66 -63 -166h182v-174h-201 q-2 -14 -2 -39v-41v-41q0 -27 2 -41h201v-174h-182q20 -98 63 -165.5t125 -67.5q90 0 133 67q45 70 72 205l182 -37q-20 -94 -53 -174q-31 -78 -80 -133q-51 -57 -110.5 -86t-145.5 -29q-84 0 -149 31q-59 29 -115 90q-49 55 -80 133q-33 82 -47 166h-172z" />
<glyph unicode="&#x2122;" d="M0 1378v113h465v-113h-176v-446h-113v446h-176zM561 932v559h158l121 -328l121 328h159v-559h-110v393l-131 -334h-78l-129 334v-393h-111z" />
<glyph unicode="&#xe000;" horiz-adv-x="930" d="M0 930h930v-930h-930v930z" />
<glyph unicode="&#xfb01;" d="M0 0v186h176v559h-176v187h176q0 190 119 292.5t317 102.5q20 0 66 -4l67 -6v-182q-57 6 -108 6q-88 0 -129 -11q-47 -12 -78 -38q-27 -25 -37 -66q-10 -45 -10 -94h559v-746h176v-186h-1118zM383 186h352v559h-352v-559z" />
<glyph unicode="&#xfb02;" d="M0 0v186h176v559h-176v187h176q0 190 119 292.5t317 102.5q96 0 181 -6q70 -4 149 -21v-1114h176v-186h-1118zM383 186h352v949q-49 6 -51 6h-47q-88 0 -129 -11q-47 -12 -78 -38q-27 -25 -37 -66q-10 -45 -10 -94h242v-187h-242v-559z" />
<glyph unicode="&#xfb03;" horiz-adv-x="3352" d="M2392 0v186h206v559h-206v187h413v-746h213v-186h-626zM2576 1053v252h252v-252h-252zM1274 0v186h206v559h-206v187h206q0 190 117 293q119 102 320 102q18 0 63 -4l70 -6v-182q-61 6 -109 6q-88 0 -129 -11q-45 -10 -76 -38q-31 -27 -38 -66q-10 -45 -11 -94h363v-187 h-363v-559h213v-186h-626zM156 0v186h206v559h-206v187h206q0 190 117 293q119 102 320 102q18 0 63 -4l70 -6v-182q-61 6 -109 6q-88 0 -129 -11q-45 -10 -76 -38q-31 -27 -38 -66q-10 -45 -11 -94h363v-187h-363v-559h213v-186h-626z" />
<glyph unicode="&#xfb04;" horiz-adv-x="3352" d="M2394 0v186h204v932h-204v187h411v-1119h215v-186h-626zM1274 0v186h206v559h-206v187h206q0 190 117 293q119 102 320 102q18 0 63 -4l70 -6v-182q-61 6 -109 6q-88 0 -129 -11q-45 -10 -76 -38q-31 -27 -38 -66q-10 -45 -11 -94h363v-187h-363v-559h213v-186h-626z M156 0v186h206v559h-206v187h206q0 190 117 293q119 102 320 102q18 0 63 -4l70 -6v-182q-61 6 -109 6q-88 0 -129 -11q-45 -10 -76 -38q-31 -27 -38 -66q-10 -45 -11 -94h363v-187h-363v-559h213v-186h-626z" />
</font>
</defs>
</svg>
