<?xml version="1.0" standalone="no"?>
<!DOCTYPE svg PUBLIC "-//W3C//DTD SVG 1.1//EN" "http://www.w3.org/Graphics/SVG/1.1/DTD/svg11.dtd" >
<svg xmlns="http://www.w3.org/2000/svg">
<metadata>
This is a custom SVG webfont generated by Font Squirrel.
Copyright   : Copyright c Mark Simonson 20092010 All rights reserved
Designer    : Mark Simonson
Foundry URL : httpwwwmsstudiocom
</metadata>
<defs>
<font id="webfontheQrZsIv" horiz-adv-x="1116" >
<font-face units-per-em="2048" ascent="1675" descent="-373" />
<missing-glyph horiz-adv-x="500" />
<glyph unicode=" " />
<glyph unicode="!" d="M242 0l53 252h252l-53 -252h-252zM360 373l148 932h272l-250 -932h-170z" />
<glyph unicode="&#x22;" d="M272 805l62 500h248l-152 -500h-158zM645 805l62 500h247l-151 -500h-158z" />
<glyph unicode="#" d="M-57 186l39 187h186l39 186h-187l41 186h187l39 189h186l-39 -189h187l38 189h187l-39 -189h186l-41 -186h-186l-39 -186h186l-39 -187h-186l-41 -186h-186l41 186h-187l-41 -186h-186l41 186h-186zM354 373h187l39 186h-187z" />
<glyph unicode="$" d="M-41 373l199 30q-4 -190 151 -231l94 438q-78 37 -116 58q-55 29 -97 75q-43 51 -57 105q-16 63 2 145q29 129 137 217q111 89 283 111l35 170h186l-37 -174q78 -16 133 -49q55 -35 91 -84q35 -51 47 -113q12 -59 2 -131l-199 -22q12 166 -115 208l-77 -374 q82 -37 120 -60q61 -37 103 -82q41 -47 59.5 -112.5t-0.5 -157.5q-16 -70 -51 -125q-37 -59 -96 -109q-59 -51 -133 -79q-77 -31 -166 -43l-37 -170h-187l37 170q-170 23 -250 127q-77 100 -61 262zM342 995q-12 -55 20 -98q29 -39 87 -70l65 306q-70 -12 -115 -45.5 t-57 -92.5zM496 172q78 14 131 55t69.5 113t-22.5 117t-101 78z" />
<glyph unicode="%" d="M-106 47l1114 1303l114 -93l-1112 -1298zM104 975q-12 46 0 98q14 57 41 98q33 49 72 82q35 29 90 54q47 20 105 20q53 0 94 -20q45 -23 69 -54q27 -33 37 -82q10 -53 0 -98q-14 -57 -41 -98q-29 -45 -71 -80q-40 -34 -92 -55q-49 -20 -102.5 -20.5t-94.5 20t-70 55.5 q-23 29 -37 80zM254 1075q-8 -43 16.5 -73.5t65.5 -30.5q45 0 82 30q35 29 45 74q10 43 -14.5 74t-67.5 31t-80 -31q-39 -33 -47 -74zM401 131q-10 49 2 100q14 57 41 99q29 45 72 80q39 33 90 55q47 20 105 20q53 0 94 -20.5t69 -54.5t37 -80q10 -53 0 -99 q-12 -55 -43 -100q-29 -45 -71 -80q-35 -31 -92 -53q-49 -20 -102.5 -20.5t-94.5 20.5q-45 23 -70 53q-28 34 -37 80zM553 233q-10 -43 14.5 -73.5t67.5 -30.5t80 31q39 33 47 73q10 43 -14.5 74t-67.5 31q-45 0 -82 -31q-35 -29 -45 -74z" />
<glyph unicode="&#x26;" d="M-53 193q-16 72 0 141q27 129 94 215q63 82 145 141q-43 78 -57 144q-14 70 2 157q16 78 55 139q41 61 95 107q45 37 118 66q63 25 131 24q70 0 123.5 -20.5t91.5 -59.5q35 -35 48 -92q14 -61 0 -123q-16 -70 -50 -121q-33 -49 -81 -96q-43 -41 -103 -80 q-14 -10 -108 -67l227 -269q39 57 65 105q10 18 56 108l178 -47q-27 -66 -78 -149q-53 -90 -108 -150l127 -145l-160 -148l-119 146q-96 -72 -180 -105q-94 -37 -199 -37q-86 0 -147 27q-66 29 -109 78.5t-57 110.5zM160 358q-18 -86 26 -141q45 -53 129 -53q55 0 113 22 q53 20 107 62l-248 305h-2q-47 -41 -78 -86q-35 -52 -47 -109zM328 893q0 -39 26 -96q43 25 80 49q41 27 70 53q33 31 53 62q18 27 28.5 75.5t-14.5 75.5q-25 29 -71 29q-61 0 -105 -43q-43 -41 -57 -107q-10 -61 -10 -98z" />
<glyph unicode="'" d="M459 805l61 500h248l-152 -500h-157z" />
<glyph unicode="(" d="M182 301q-2 123 27 266q25 125 88 267q61 139 139 251q86 123 187 228q102 106 231 190l98 -127q-96 -63 -196 -164q-90 -90 -164 -198q-78 -115 -123 -219q-49 -114 -74 -228q-25 -119 -22 -227q4 -123 28 -219q31 -115 78 -199q53 -94 129 -164l-153 -127 q-82 78 -148 191q-61 108 -92 227q-29 115 -33 252z" />
<glyph unicode=")" d="M25 -244q102 68 198 164q90 90 164 199q72 106 121 219q49 114 74 227q23 104 22 228q0 111 -29 219q-31 115 -77 198q-53 94 -129 164l153 127q89 -83 148 -190q63 -119 92 -228q29 -115 33 -252q2 -123 -27 -266q-27 -133 -86 -266q-61 -139 -139 -252 q-80 -117 -189 -227q-106 -109 -229 -191z" />
<glyph unicode="*" d="M-16 319l340 148l-277 145l135 174l240 -194l45 342h199l-103 -342l326 194l61 -174l-342 -145l279 -148l-135 -174l-240 197l-45 -342h-199l103 342l-326 -197z" />
<glyph unicode="+" d="M-16 385l39 186h372l80 373h187l-80 -373h372l-39 -186h-372l-80 -373h-187l80 373h-372z" />
<glyph unicode="," d="M70 -373l305 559h246l-394 -559h-157z" />
<glyph unicode="-" d="M-16 385l39 186h931l-39 -186h-931z" />
<glyph unicode="." d="M242 0l53 252h252l-53 -252h-252z" />
<glyph unicode="/" d="M-123 -176l1092 1542l137 -76l-1094 -1542z" />
<glyph unicode="0" d="M-20 401q0 109 26 252q25 117 82 252q51 121 133 215q84 96 187 150q111 57 241 57q133 0 219 -57q82 -55 123 -149.5t41 -215.5q0 -125 -26.5 -252t-79.5 -252q-51 -119 -133 -217q-84 -100 -185 -151q-108 -55 -246 -55.5t-221 55.5q-80 53 -120.5 151t-40.5 217z M188 475l621 514q-22 68 -68 111q-43 41 -131 41q-144 0 -245 -129q-102 -131 -152 -359q-19 -92 -25 -178zM205 307q22 -65 67 -104t131 -39q89 0 154 43q63 43 113 112q47 68 78 158q37 106 51 176q20 88 22 164z" />
<glyph unicode="1" d="M53 0l39 186h211l158 742q-25 -49 -68 -86q-47 -41 -96 -64q-59 -29 -115 -39q-72 -14 -127 -14l43 207q63 0 138 22q61 18 129 70q66 49 108 115q47 72 68 166h207l-238 -1119h209l-39 -186h-627z" />
<glyph unicode="2" d="M-55 0l41 195l632 503q82 70 125 131q47 66 57.5 119t-1.5 88q-12 33 -37 60q-27 27 -62 34q-41 10 -75 11q-121 0 -209 -72q-86 -70 -117 -213h-195q49 221 192.5 346t367.5 125q86 0 155 -24q68 -23 119 -72q49 -45 68 -119q20 -76 2 -164q-23 -98 -90 -188 q-74 -100 -175 -182l-489 -392h383l37 179h186l-76 -365h-839z" />
<glyph unicode="3" d="M14 410l201 32q-16 -133 41 -204q59 -74 176 -74q98 0 168 51t88 139q25 117 -39 166q-68 51 -256 51l39 187q68 0 129 12q45 8 109 41q43 23 80 61q29 33 43 86q14 82 -23 132q-39 51 -131 51q-125 0 -203 -66q-80 -68 -110 -213h-197q27 121 76 203q53 88 123 145 q68 55 161 88q84 29 189 29q78 0 151 -27q70 -25 111 -71q47 -53 61 -117q16 -70 -2 -154q-12 -57 -38 -104q-25 -45 -70 -86q-43 -39 -94 -63q-49 -23 -113 -27q66 -6 113 -35q39 -25 71 -74q27 -41 33 -100q6 -53 -6 -115q-18 -84 -68 -155q-45 -66 -118 -119 q-63 -47 -152 -76q-80 -27 -166 -27q-95 0 -172 25q-70 23 -127 80q-51 49 -72 133q-20 82 -6 195z" />
<glyph unicode="4" d="M-25 348l39 187l641 770h242l-164 -770h213l-39 -187h-213l-35 -162h213l-38 -186h-627l39 186h209l34 162h-514zM201 535h327l113 526z" />
<glyph unicode="5" d="M-12 387l202 29q-14 -111 35 -183q49 -70 172 -69q61 0 117 22q57 23 96 58q43 37 72 88q29 53 41 106q27 131 -23 203q-53 74 -163 74q-70 0 -138 -31q-70 -31 -116 -96h-207l151 717h817l-38 -187h-611l-73 -338q117 121 294 121q86 0 152 -33q70 -35 115 -92 q43 -55 59 -145q14 -86 -6 -193q-23 -96 -78 -180q-59 -90 -135 -147q-82 -61 -174 -99q-90 -35 -193 -35q-96 0 -167.5 27t-123 82t-71.5 127q-20 76 -6 174z" />
<glyph unicode="6" d="M0 397q2 121 31 254q27 131 86 254q57 121 147 217q88 94 201 150q114 55 252 55q106 0 180 -29q82 -33 133 -88l-145 -151q-37 43 -92 63q-49 18 -115 19q-84 0 -156 -33q-70 -33 -131 -96q-53 -55 -96 -145.5t-64 -184.5q57 109 154 170q102 66 242 66q88 0 151 -35 q72 -39 113 -99q43 -63 59 -149q15 -86 -6 -191q-25 -106 -78 -194q-49 -82 -129 -146q-76 -59 -168 -94q-90 -33 -188 -33q-147 0 -231 56q-78 51 -117 149q-37 90 -33 215zM199 342q6 -52 30 -92q27 -43 72 -64q51 -23 123 -22q113 0 199 73.5t114 206.5q25 123 -24 205 q-49 84 -176 84q-125 0 -213 -76q-92 -80 -117 -202q-14 -58 -8 -113z" />
<glyph unicode="7" d="M141 899l86 406h883l-39 -187q-151 -132 -252 -252q-109 -127 -170 -245q-74 -141 -119 -279q-53 -162 -90 -342h-211q41 188 95 332q59 162 131 284q78 135 184 256q102 117 250 246h-516l-47 -219h-185z" />
<glyph unicode="8" d="M-31 193q-20 72 0 174q14 57 41 106q31 55 78 102q43 43 105 76q55 29 124 39q-51 6 -90 35q-37 27 -59 70q-20 37 -26.5 86t1.5 88q18 88 67.5 155.5t119.5 112.5q72 47 151 68q86 23 166 22.5t158 -22.5q74 -22 123 -68q49 -45 69 -113q20 -66 2 -155q-10 -47 -34 -88 q-27 -43 -66 -86q-39 -41 -88 -70q-51 -29 -106 -35q61 -10 106 -39q47 -31 74 -76q25 -41 35 -102q8 -55 0 -106q-20 -98 -74 -174q-49 -68 -127 -121q-76 -49 -168 -72q-96 -23 -191 -23q-98 0 -182 23q-78 20 -135 72q-51 47 -74 121zM178 379q-12 -51 2 -96 q12 -40 43 -68q29 -27 76 -39q45 -12 102.5 -12t106.5 12q51 12 92 39q39 25 72 68q31 39 43 96q12 55 -2 100q-12 41 -43 65.5t-76 37t-102.5 12.5t-106.5 -12.5t-92 -36.5q-41 -25 -74 -66q-27 -34 -41 -100zM348 956q-18 -82 27 -129q43 -47 155 -47q111 0 176.5 47 t84.5 129q18 88 -29 136q-49 49 -153.5 49t-172.5 -49q-70 -52 -88 -136z" />
<glyph unicode="9" d="M-20 94l145 152q39 -45 92 -64q52 -18 117 -18q86 0 158 33q70 31 126 96q61 68 99 145q40 83 61 185q-51 -102 -153 -170q-100 -66 -240 -66q-84 0 -152 37q-72 39 -112 98q-43 63 -59.5 149.5t6.5 188.5q20 106 77 195q55 86 129 147q68 55 166 92q90 33 189 33 q145 0 231 -57.5t119 -149.5q35 -100 33 -215q-2 -109 -33 -252q-29 -133 -86 -256q-53 -115 -145 -215q-82 -90 -203 -149q-114 -55 -252 -56q-104 0 -178 29q-86 33 -135 88zM274 860q-25 -123 25 -207q49 -82 176 -82q125 0 213 76q89 77 117 203q12 61 6 113 q-6 59 -29 94q-23 39 -73 61q-49 23 -121 23q-113 0 -199 -74t-115 -207z" />
<glyph unicode=":" d="M242 0l53 252h252l-53 -252h-252zM385 680l53 252h252l-53 -252h-252z" />
<glyph unicode=";" d="M70 -373l305 559h246l-394 -559h-157zM385 680l53 252h252l-53 -252h-252z" />
<glyph unicode="&#x3c;" d="M203 479l620 512l92 -121l-473 -391l308 -391l-146 -121z" />
<glyph unicode="=" d="M-57 199l41 186h931l-41 -186h-931zM23 571l38 187h932l-39 -187h-931z" />
<glyph unicode="&#x3e;" d="M23 88l475 391l-310 391l146 121l403 -512l-622 -512z" />
<glyph unicode="?" d="M242 0l53 252h252l-53 -252h-252zM274 965q55 168 172 266q115 96 293 96q168 0 242 -88t43 -235q-14 -72 -53 -130q-35 -53 -88 -102q-55 -51 -105 -90q-74 -57 -104 -86q-49 -45 -88 -100q-37 -51 -54 -123h-213q18 80 60 147q43 70 90 117q43 43 109 94q35 27 104 88 q51 45 86 88q37 47 49 99q14 63 -18 100q-31 35 -97 35q-100 0 -153 -54q-57 -57 -88 -151z" />
<glyph unicode="@" d="M-18.5 479q6.5 88 24.5 172q29 133 80 256q51 121 133 215.5t189 149.5q109 55 241 55q84 0 158 -27q68 -25 113 -69q47 -47 73 -107q29 -61 37 -131q10 -76 4 -151q-8 -104 -20 -158q-12 -55 -41 -137q-23 -63 -68 -127q-39 -53 -96 -92q-55 -37 -129 -37q-25 0 -51 10 q-16 6 -41 31q-18 18 -25 47q-6 33 -2 57l4 10q-12 -27 -39 -61q-18 -25 -51 -49q-27 -20 -57.5 -32.5t-63.5 -12.5q-57 0 -96 28q-33 25 -49 78q-16 55 -14 109q2 59 18 125q16 78 45 141q29 66 74 119q39 47 98 82q53 31 115 31q16 0 35 -7q16 -6 32 -18q12 -10 23 -31 q8 -18 12 -45l17 82h161l-104 -496q-6 -31 0 -45t24 -14q23 0 41 21q20 25 37 53q14 27 33 82q4 14 25 98q23 109 22.5 201t-29 165.5t-88.5 114.5q-61 43 -161.5 43t-180.5 -43q-78 -43 -139 -118q-61 -78 -100 -177q-45 -117 -68 -219q-20 -96 -24 -217q-4 -102 24.5 -176 t87.5 -117q63 -45 162 -45q76 0 154 31q68 27 135 78l39 -99q-154 -129 -353 -129q-90 0 -157.5 25t-114.5 72q-49 49 -72 108q-27 68 -34 140q-9 69 -2.5 157zM367 541q0 -43 6 -58q9 -22 24 -30q16 -10 39 -11q25 0 49 19q29 23 47 45q14 18 35 63q16 37 23 70l35 158 q-8 37 -33 53q-23 16 -47 16q-31 0 -56 -18q-27 -20 -47 -49q-22 -31 -36 -74q-20 -55 -27 -92q-12 -55 -12 -92z" />
<glyph unicode="A" d="M-158 0l684 1305h238l131 -1305h-217l-29 311h-432l-158 -311h-217zM311 494h322l-45 538z" />
<glyph unicode="B" d="M-49 0l276 1305h394q80 0 157 -13q72 -12 131 -51q55 -37 80 -104q13 -35 13 -79q0 -41 -11 -93q-20 -94 -90 -181q-66 -82 -176 -118q119 -41 164 -109q29 -44 29 -110q0 -40 -11 -89q-41 -180 -178 -268q-139 -90 -362 -90h-416zM197 186h209q119 0 200 47 q78 45 101 146q5 25 5 47q0 64 -44 98q-59 47 -181 47h-208zM317 758h187q43 0 86 6q45 6 82 24q35 16 67 58q29 35 41 92q6 28 6 49q0 24 -8 43q-18 43 -43 57q-31 18 -69.5 24.5t-83.5 6.5h-187z" />
<glyph unicode="C" d="M-8 401q0 109 26 252q25 117 82 252q53 125 131 215q84 98 183 150q109 57 237 57q49 0 84 -10q39 -10 76 -35q34 -22 55 -55q23 -35 25 -76l33 154h186l-104 -494h-187q9 45 9 93q0 14 -1 28q-3 58 -24 104q-23 47 -68 76t-110 29q-89 0 -154 -43q-63 -43 -113 -113 q-45 -66 -82 -158q-33 -82 -51 -174q-16 -76 -22 -176q-2 -28 -2 -52q0 -59 12 -106q18 -70 67.5 -112.5t137.5 -42.5q125 0 213 82q86 80 155 217l152 -64q-47 -96 -102 -174q-57 -82 -125 -133q-71 -55 -154 -86q-78 -29 -180 -29q-135 0 -219 56q-86 57 -125 151 q-41 98 -41 217z" />
<glyph unicode="D" d="M-49 0l276 1305h424q133 0 217 -54q86 -53 125 -141q43 -94 45 -209q0 -12 1 -23q0 -105 -25 -225q-27 -129 -80 -250q-53 -123 -131 -208q-80 -90 -187 -142q-111 -53 -241 -53h-424zM197 186h217q143 0 243 121q104 127 150 346q24 113 24 198q0 88 -26 148 q-51 119 -193 119h-217z" />
<glyph unicode="E" d="M-49 0l276 1305h834l-39 -187h-627l-78 -360h490l-39 -187h-489l-82 -385h626l-39 -186h-833z" />
<glyph unicode="F" d="M-49 0l276 1305h834l-39 -187h-627l-78 -360h490l-39 -187h-489l-121 -571h-207z" />
<glyph unicode="G" d="M-8 397q0 127 26 254q25 117 82 252q51 119 133 217q80 94 187 150q111 57 244 57q45 0 77 -10q35 -10 70 -35q37 -25 55 -55q23 -35 25 -76l33 154h186l-98 -463h-187q8 41 9 79q0 19 -3 37q-6 53 -34.5 94.5t-71.5 65.5q-39 23 -100 23q-89 0 -154 -43 q-66 -43 -115 -115q-49 -70 -80 -158q-37 -100 -51 -173.5t-22 -176.5q-2 -27 -2 -50q0 -59 12 -106q18 -70 67.5 -112.5t137.5 -42.5q123 0 221 82q94 80 160 250h-275l39 186h465l-6 -33q-27 -127 -82 -254q-55 -129 -131 -215q-80 -92 -188.5 -147.5t-243.5 -55.5 t-219 56q-84 57 -125 149q-41 94 -41 215z" />
<glyph unicode="H" d="M-49 0l276 1305h207l-117 -547h420l117 547h207l-277 -1305h-206l120 571h-419l-121 -571h-207z" />
<glyph unicode="I" d="M57 0l39 186h207l199 932h-207l39 187h627l-39 -187h-213l-199 -932h213l-39 -186h-627z" />
<glyph unicode="J" d="M-29 342l201 70q2 -115 57 -183q53 -66 162 -65q66 0 117 29q49 29 82 71q39 53 57 107q14 41 35 127l172 807h207l-172 -807q-53 -252 -187 -385q-135 -135 -352 -136q-176 0 -272.5 90.5t-106.5 274.5z" />
<glyph unicode="K" d="M-49 0l276 1305h207l-108 -512l514 512h266l-569 -541l290 -764h-241l-213 608l-109 -102l-106 -506h-207z" />
<glyph unicode="L" d="M-49 0l276 1305h207l-237 -1119h626l-39 -186h-833z" />
<glyph unicode="M" d="M-49 0l276 1305h246l45 -590l295 590h248l-277 -1305h-206l186 883l-232 -469h-159l-29 469l-186 -883h-207z" />
<glyph unicode="N" d="M-49 0l276 1305h260l177 -899l190 899h207l-277 -1305h-239l-187 946l-200 -946h-207z" />
<glyph unicode="O" d="M-20 401q0 109 26 252q25 117 82 252q51 121 133 215q84 96 187 150q111 57 241 57q133 0 219 -57q82 -55 123 -149.5t41 -215.5q0 -125 -26.5 -252t-79.5 -252q-51 -119 -133 -217q-84 -100 -185 -151q-108 -55 -246 -55.5t-221 55.5q-80 53 -120.5 151t-40.5 217z M190 477q-2 -28 -1 -52q0 -59 12 -106q18 -72 65 -112q49 -43 137 -43q89 0 154 43q63 43 113 112q47 68 78 158q37 106 51 176q18 90 24 174q2 22 2 43q0 62 -14 115q-18 72 -66 113q-49 43 -135 43q-144 0 -245 -129q-102 -131 -152 -359q-17 -76 -23 -176z" />
<glyph unicode="P" d="M-49 0l276 1305h430q213 0 312 -99q71 -71 70 -188q0 -47 -11 -103q-43 -197 -182 -292q-137 -94 -352 -95h-226l-110 -528h-207zM309 715h226q109 0 188 51q78 49 98 152q6 29 6 53q0 61 -39 96q-57 51 -167 51h-226z" />
<glyph unicode="Q" d="M-20 428q4 115 26 225q25 117 82 252q51 121 133 215q84 96 187 150q111 57 241 57q133 0 219 -57q82 -55 123 -149.5t41 -215.5q0 -125 -26 -252q-27 -131 -70 -233q-49 -117 -113 -201q-70 -90 -159 -153q-88 -61 -205 -80q-1 -13 -1 -26q0 -79 54 -110q66 -37 197 -36 q6 0 18 1t21 1h45l-39 -185q-37 -4 -56 -4h-51q-201 0 -309 92q-94 81 -94 229q0 21 2 44q-100 25 -158 86q-61 66 -86 151q-23 83 -23 177q1 11 1 22zM190 477q-2 -28 -1 -52q0 -59 12 -106q18 -72 65 -112q49 -43 137 -43q89 0 154 43q63 43 113 112q47 68 78 158 q37 106 51 176q18 90 24 174q2 22 2 43q0 62 -14 115q-18 72 -66 113q-49 43 -135 43q-144 0 -245 -129q-102 -131 -152 -359q-17 -76 -23 -176z" />
<glyph unicode="R" d="M-49 0l276 1305h430q213 0 312 -99q71 -71 70 -188q0 -47 -11 -103q-18 -86 -59 -151q-43 -68 -99 -113q-63 -49 -129 -76q-70 -27 -149 -36l260 -539h-262l-228 528h-94l-110 -528h-207zM309 715h223q111 0 191 51q78 49 98 152q6 29 6 53q0 61 -39 96q-57 51 -170 51 h-223z" />
<glyph unicode="S" d="M-72 0l90 426h187q-8 -33 -8 -63q0 -26 6 -50q12 -51 41 -82q31 -33 76 -51t100 -18q90 0 157.5 43t88.5 137q5 25 4.5 46t-4.5 38q-10 37 -37 63q-25 25 -70 48l-96 43q-72 27 -133 55q-65 31 -111 74q-45 43 -67 108q-11 32 -11 72.5t11 89.5q18 90 63 151 q45 63 107 107q68 47 137 68q78 23 151 22q86 0 145.5 -39t80.5 -100l24 117h187l-86 -406h-187q8 38 8 72q0 65 -30 108q-45 63 -150 64q-94 0 -158 -41q-70 -43 -84 -119q-5 -20 -4.5 -36t4.5 -29q10 -29 35 -52q27 -23 66 -41q76 -35 96 -43q66 -23 133 -59 q70 -37 115 -82q49 -49 69 -115q12 -37 12 -82q0 -41 -9 -86q-23 -98 -66 -161q-47 -72 -109 -119q-70 -53 -141 -76q-77 -25 -160 -25q-94 0 -159.5 33t-102.5 109l-24 -119h-187z" />
<glyph unicode="T" d="M57 0l39 186h207l199 932h-178l-62 -289h-184l100 476h930l-100 -476h-185l62 289h-176l-199 -932h207l-39 -186h-621z" />
<glyph unicode="U" d="M31 264q-1 18 -2 38q0 77 20 165l178 838h207l-178 -840q-12 -66 -14 -103q-1 -13 -1 -24q0 -39 9 -72q12 -47 47 -73q39 -29 104 -29q68 0 115 29q45 27 80 71q31 39 51 98q20 57 29 103l178 840h207l-178 -840q-25 -113 -68 -201t-108 -153q-63 -63 -151.5 -98.5 t-195.5 -35.5q-104 0 -178 35q-72 35 -108 99q-37 65 -43 153z" />
<glyph unicode="V" d="M119 1305h217l90 -1033l526 1033h217l-684 -1305h-235z" />
<glyph unicode="W" d="M41 0l74 1305h215l-66 -879l201 506h199l-15 -506l309 879h216l-480 -1305h-213l4 563l-231 -563h-213z" />
<glyph unicode="X" d="M-121 0l39 186h113l354 473l-152 459h-94l39 187h414l-39 -187h-84l72 -289l196 289h-82l39 187h416l-39 -187h-100l-348 -459l153 -473h117l-39 -186h-426l39 186h74l-76 295l-199 -295h74l-39 -186h-422z" />
<glyph unicode="Y" d="M55 0l39 186h209l74 346l-164 586h-94l39 187h411l-39 -187h-90l84 -383l246 383h-90l39 187h411l-38 -187h-95l-413 -586l-74 -346h209l-39 -186h-625z" />
<glyph unicode="Z" d="M-49 0l39 184l782 934h-397l-62 -284h-186l100 471h817l-38 -187l-766 -932h401l61 287h183l-101 -473h-833z" />
<glyph unicode="[" d="M195 -373l395 1864h434l-39 -186h-248l-317 -1491h248l-39 -187h-434z" />
<glyph unicode="\" d="M186 1290l170 76l439 -1542l-170 -76z" />
<glyph unicode="]" d="M-53 -373l39 187h247l318 1491h-248l39 186h434l-395 -1864h-434z" />
<glyph unicode="^" d="M-39 559l561 746h248l246 -746h-230l-180 561l-418 -561h-227z" />
<glyph unicode="_" d="M-137 -186l39 186h932l-39 -186h-932z" />
<glyph unicode="`" d="M389 1225l154 180l344 -287l-119 -137z" />
<glyph unicode="a" d="M-47 268q18 84 76 144q61 63 137 102q80 39 176 61q90 20 193 21q68 0 92 -2l75 -6l7 37q4 18 3 33q0 47 -36 75q-49 37 -141 37q-90 0 -175 -22q-94 -25 -180 -70l-49 162q106 55 215 84q113 31 229 30q82 0 146 -16q74 -18 121 -57q51 -41 71 -101q11 -31 11 -70 t-11 -85l-131 -625h-204l28 137q-63 -74 -170 -119q-100 -41 -215 -41q-68 0 -123 19q-57 20 -94 55q-33 33 -49 92q-9 32 -9 65q0 29 7 60zM160 279q-3 -14 -3 -27q0 -90 156 -90q57 0 117 16q61 16 105 43q55 33 79 66q33 41 41 86l9 35q-55 10 -91 10h-75 q-154 0 -238 -39t-100 -100z" />
<glyph unicode="b" d="M-49 0l276 1305h207l-98 -457q70 51 139 80q66 27 143 26q92 0 160 -36q70 -37 111 -101q41 -59 53 -155q4 -30 4 -64q0 -61 -14 -133q-22 -108 -74 -197q-55 -96 -119 -155q-66 -63 -153 -101q-82 -35 -176 -35q-80 0 -134 27q-47 25 -102 82l-16 -86h-207zM209 248 q27 -39 82 -61.5t106 -22.5q113 0 207 84t121 217q9 46 9 86q0 78 -36 133q-55 84 -174 84q-55 0 -114.5 -20.5t-108.5 -63.5z" />
<glyph unicode="c" d="M-27 264q-8 38 -8 81q0 57 15 120q20 104 77 197q57 94 129 155q70 61 164 101q88 37 182.5 36.5t158 -41.5t77.5 -116l29 135h184l-92 -434h-184q9 43 8 79q0 70 -33 117q-53 74 -162 74q-43 0 -92 -18q-55 -20 -98 -54q-51 -37 -86 -94q-37 -59 -56 -137q-9 -46 -9 -84 q0 -28 5 -51q12 -57 45 -92q34 -37 86.5 -55.5t110.5 -18.5q100 0 180 30.5t146 84.5l75 -146q-108 -89 -215 -123q-104 -33 -223 -33q-113 0 -205 35q-86 33 -139 99q-52 63 -70 153z" />
<glyph unicode="d" d="M-12 268q-4 30 -4 64q0 61 14 133q22 108 74 197q53 92 120.5 155.5t151.5 100.5q86 37 176 36q80 0 133 -26q57 -29 103 -80l59 270h-180l39 187h387l-277 -1305h-206l16 86q-78 -57 -137 -82q-66 -27 -146 -27q-96 0 -159 35q-66 35 -109 101q-43 63 -55 155zM205 465 q-9 -44 -9 -82q0 -79 37 -135q55 -84 173 -84q53 0 116 22q59 20 107 62l92 436q-31 43 -82 64q-53 20 -107 20q-115 0 -208 -84q-90 -82 -119 -219z" />
<glyph unicode="e" d="M-25 266q-10 40 -9 85q0 54 14 114q20 104 77.5 196.5t132.5 153.5q84 68 177 103q98 37 206 36q115 0 195 -39q88 -43 133 -110q49 -76 66 -180q5 -37 5 -79q0 -74 -18 -159h-780q-1 -9 0 -17q0 -85 57 -143q63 -63 193 -63q100 0 180 30.5t146 84.5l75 -146 q-108 -89 -215 -123q-104 -33 -227 -33q-113 0 -195 35q-84 37 -139 101q-51 59 -74 153zM221 569h539q2 86 -64 144q-66 55 -164 55t-188 -55.5t-123 -143.5z" />
<glyph unicode="f" d="M57 0l39 186h207l119 559h-207l39 187h207q39 190 180 293q139 102 340 102q18 0 63 -4l68 -6l-39 -182q-57 6 -106 6q-88 0 -131 -11q-47 -12 -86 -38q-31 -23 -52 -66q-18 -41 -30 -94h362l-39 -187h-362l-119 -559h213l-39 -186h-627z" />
<glyph unicode="g" d="M-127 -248l129 160q121 -123 293 -123q104 0 182 53q76 51 101 164l22 100q-74 -53 -141 -81q-61 -27 -144 -27q-88 0 -159 39q-68 37 -109 102.5t-53 153.5q-6 39 -6 76q0 55 12 108q23 100 70 185q51 90 120 153q76 70 154 103q86 37 176 36q80 0 133 -26 q57 -29 103 -80l18 84h207l-195 -922q-23 -102 -69 -172q-51 -78 -119 -127q-63 -47 -160 -78q-90 -29 -184 -28q-243 0 -381 147zM201 360q10 -55 35 -92q29 -41 69 -61q45 -23 103 -23q55 0 118 23q59 20 109 63l86 414q-31 43 -82 64q-53 20 -109 20q-119 0 -206 -82 q-92 -86 -117 -209q-10 -40 -10 -76q1 -21 4 -41z" />
<glyph unicode="h" d="M-49 0l276 1305h207l-129 -607q59 123 156 189q98 68 221 67q139 0 203 -94q37 -55 36 -146q0 -61 -16 -139l-121 -575h-206l120 575q8 42 9 75q0 48 -19 75q-31 43 -108 43q-115 0 -207 -92t-127 -258l-88 -418h-207z" />
<glyph unicode="i" d="M57 0l39 186h207l119 559h-207l39 187h414l-158 -746h213l-39 -186h-627zM465 1053l53 252h252l-53 -252h-252z" />
<glyph unicode="j" d="M-147 -236l149 138q37 -55 84 -84q45 -27 115 -27q106 0 166 57q63 59 84 152l157 745h-211l39 187h418l-197 -932q-23 -96 -65 -164q-45 -72 -111 -125q-59 -49 -147 -78q-86 -29 -174 -28q-212 -1 -307 159zM651 1053l54 252h251l-53 -252h-252z" />
<glyph unicode="k" d="M-49 0l276 1305h207l-164 -768l457 395h285l-520 -428l339 -504h-268l-231 377l-115 -96l-59 -281h-207z" />
<glyph unicode="l" d="M59 0l39 186h205l199 932h-205l39 187h412l-238 -1119h215l-39 -186h-627z" />
<glyph unicode="m" d="M-98 0l196 932h209l-28 -135q37 76 90 116.5t125 40.5q58 0 92 -36q33 -35 32 -101q51 70 97 103q47 35 123 34q96 0 133 -71q19 -36 19 -93q0 -50 -15 -120l-141 -670h-207l135 639q9 37 9 68q0 17 -3 30q-6 31 -41 31q-61 0 -92 -70q-33 -76 -60 -202l-104 -496h-207 l135 639q10 40 10 70q0 17 -3 28q-9 31 -44 31q-59 0 -90 -70q-33 -76 -59 -202l-104 -496h-207z" />
<glyph unicode="n" d="M-49 0l196 932h207l-49 -234q59 123 156 189q98 68 221 67q139 0 203 -94q37 -55 36 -146q0 -61 -16 -139l-121 -575h-206l120 575q8 42 9 75q0 48 -19 75q-31 43 -108 43q-115 0 -207 -92t-127 -258l-88 -418h-207z" />
<glyph unicode="o" d="M-29 266q-6 36 -6 76q0 60 15 123q20 104 77 197q59 94 131 155q74 61 177 101q98 37 206.5 36.5t192.5 -36.5q82 -37 133 -101q49 -61 66 -155q6 -37 6 -78q0 -56 -13 -119q-25 -109 -77 -199q-51 -86 -131 -153q-74 -61 -177 -101q-92 -35 -209 -35q-113 0 -190 35 q-82 37 -133 101q-53 64 -68 153zM180 344q10 -57 35 -94q31 -43 76 -64q51 -23 112 -22q66 0 123 22q53 20 103 64q45 39 76 94q29 51 45 121q8 43 8 81q0 19 -2 38q-6 53 -37 98q-25 37 -76 63q-43 23 -112.5 23t-122.5 -23q-61 -27 -103 -63q-39 -37 -73.5 -98.5 t-45.5 -118.5q-10 -40 -9 -78q0 -22 3 -43z" />
<glyph unicode="p" d="M-127 -373l274 1305h207l-18 -84q70 51 139 80q66 27 143 26q92 0 160 -36q70 -37 111 -101q41 -59 53 -155q4 -30 4 -64q0 -61 -14 -133q-22 -108 -74 -197q-55 -96 -119 -155q-66 -63 -153 -101q-82 -35 -176 -35q-80 0 -134 27q-47 25 -102 82l-96 -459h-205zM209 250 q29 -41 82 -64q55 -23 106 -22q113 0 207 84t121 217q9 46 9 86q0 78 -36 133q-55 84 -174 84q-55 0 -114.5 -20.5t-108.5 -63.5z" />
<glyph unicode="q" d="M-12 268q-4 30 -4 64q0 61 14 133q22 108 74 197q53 92 120.5 155.5t151.5 100.5q86 37 176 36q80 0 133 -26q57 -29 103 -80l18 84h207l-276 -1305h-207l96 459q-78 -57 -137 -82q-66 -27 -146 -27q-96 0 -159 35q-66 35 -109 101q-43 63 -55 155zM205 465 q-9 -44 -9 -82q0 -79 37 -135q55 -84 173 -84q53 0 116 22q59 20 107 62l92 436q-31 43 -82 64q-53 20 -107 20q-115 0 -208 -84q-90 -82 -119 -219z" />
<glyph unicode="r" d="M-98 0l39 186h211l118 559h-211l39 187h418l-49 -234q80 141 192.5 198.5t249.5 57.5q37 0 88 -10q43 -8 84 -31l-120 -202q-39 20 -70 28q-33 8 -86 9q-74 0 -135 -21q-65 -22 -117 -61q-53 -41 -90 -102.5t-55 -145.5l-50 -232h209l-39 -186h-626z" />
<glyph unicode="s" d="M-86 111l123 170q88 -59 182 -91q82 -27 178 -26q127 0 187 26q66 29 73 74q6 20 -8 37q-12 14 -49 28.5t-90 24.5l-145 27q-80 14 -129 29q-57 16 -105 51q-43 31 -61 80q-11 28 -11 63q0 28 7 60q16 76 67 131q53 57 121 92q70 37 152 51q88 16 159 16q104 0 207 -28 q96 -27 164 -82l-117 -160q-59 45 -137 66q-72 18 -158 18q-25 0 -78 -4q-35 -2 -75 -16q-35 -12 -64 -31q-27 -18 -33 -47q-1 -5 -1 -10q0 -29 53 -50q66 -27 215 -47q86 -12 151 -31q68 -18 111 -49q41 -31 61 -82q10 -27 11 -60q0 -29 -9 -62q-16 -86 -71 -148 q-51 -57 -125 -92q-80 -37 -156 -49q-84 -12 -158 -13q-129 0 -245 37q-121 40 -197 97z" />
<glyph unicode="t" d="M59 745l39 187h211l80 373h207l-80 -373h391l-39 -187h-391l-86 -403q-6 -30 -6 -55q0 -49 23 -78q35 -45 106 -45q90 0 141 51q53 53 78 123l172 -41q-45 -147 -164 -234q-117 -86 -268 -86q-84 0 -143 27q-63 29 -99 76q-41 53 -51 115q-5 28 -5 58q0 41 9 89l86 403 h-211z" />
<glyph unicode="u" d="M25 356l122 576h207l-123 -576q-9 -45 -9 -78q0 -47 20 -71q34 -43 110 -43q115 0 207 92t127 258l88 418h207l-197 -932h-206l49 233q-59 -123 -156 -188q-98 -68 -221 -68q-143 0 -205 93q-37 55 -37 148q1 61 17 138z" />
<glyph unicode="v" d="M98 932h221l97 -705l393 705h221l-541 -932h-243z" />
<glyph unicode="w" d="M12 0l58 932h202l-49 -623l232 623h219l-31 -623l213 623h203l-336 -932h-256l20 561l-219 -561h-256z" />
<glyph unicode="x" d="M-119 0l39 186h135l271 287l-142 272h-125l39 187h420l-39 -187h-65l73 -180l154 180h-74l39 187h424l-39 -187h-121l-256 -272l148 -287h133l-39 -186h-442l39 186h82l-86 195l-166 -195h75l-39 -186h-438z" />
<glyph unicode="y" d="M-174 -358l82 190q45 -16 74 -22q35 -6 63 -7q94 0 145 82l56 90l-154 957h215l107 -705l387 705h221l-637 -1114q-70 -119 -168 -166q-92 -45 -213 -45q-45 0 -86 8q-51 11 -92 27z" />
<glyph unicode="z" d="M-49 0l39 184l649 561h-348l-41 -188h-182l79 375h816l-39 -187l-652 -559h369l39 185h182l-78 -371h-833z" />
<glyph unicode="{" d="M186 465l39 186q96 0 144 23q53 25 71 108l90 426q10 55 45 113q31 51 76 88q55 43 101 61q53 20 116 21h154l-39 -186h-154q-55 0 -77 -21q-27 -23 -35 -76l-90 -426q-23 -98 -90.5 -153.5t-147.5 -71.5q35 -6 66 -25q35 -20 49 -45q20 -35 28 -69q10 -41 -2 -84 l-90 -426q-12 -51 4.5 -73.5t67.5 -22.5h154l-39 -185h-154q-66 0 -108 21q-51 23 -76 57q-27 37 -37 90q-10 55 2 113l90 426q18 82 -25 106.5t-133 24.5z" />
<glyph unicode="|" d="M233 -186l357 1677h186l-356 -1677h-187z" />
<glyph unicode="}" d="M-51 -373l39 185h153q51 0 78 22q23 18 35 74l92 430q8 45 33 84q23 37 55 70q18 18 72 45q37 18 76 24q-72 16 -117 72q-46 58 -25 153l90 426q12 55 -2 74q-16 18 -69 19h-154l39 186h154q66 0 108 -21q51 -23 76 -57q31 -41 39 -88q10 -57 -4 -113l-90 -426 q-18 -84 24 -108q39 -23 135 -23l-41 -186q-94 0 -145 -25q-49 -23 -68 -106l-92 -430q-12 -59 -42.5 -112.5t-78.5 -90.5q-45 -35 -100 -57q-53 -20 -117 -21h-153z" />
<glyph unicode="~" d="M-47 266q23 80 63 166q35 74 90 135q49 55 113 88t139 33q82 0 119 -39q39 -43 58 -88l32 -86q16 -41 47 -41q53 0 91 58q35 55 81 190l193 -14q-25 -89 -61 -166q-37 -76 -91 -133q-55 -59 -114 -90q-63 -33 -140 -33q-82 0 -118 39q-37 41 -56 88q-4 14 -17 42.5 t-17 43.5q-12 39 -48 39q-53 0 -90 -56q-29 -43 -80 -190z" />
<glyph unicode="&#xa0;" />
<glyph unicode="&#xa2;" d="M18 653q40 194 172 320q133 127 324 157l37 175h186l-37 -168q92 -8 170 -43t138 -109l-138 -145q-37 43 -86 69q-57 31 -122 39l-127 -592q84 14 141 41q63 31 115 70l75 -145q-95 -77 -184 -111q-88 -33 -186 -43l-35 -168h-187l37 176q-180 35 -256 160 q-78 127 -37 317zM225.5 653.5q-24.5 -116.5 12.5 -184.5q39 -72 114 -98l121 565q-84 -27 -156 -98q-67 -68 -91.5 -184.5z" />
<glyph unicode="&#xa3;" d="M-98 0l39 186h61q37 0 61 13q20 10 43 32.5t33 42.5q14 27 17 48l51 237h-187l39 186h187l49 230q15 77 55 141q39 63 99 113q51 43 122 71q66 27 134 27q123 0 194.5 -65.5t67.5 -186.5l-197 -45q-6 111 -104 111q-59 0 -102.5 -37t-61.5 -129l-49 -230h186l-39 -186 h-186l-41 -186q-16 -68 -51 -115q-39 -53 -80 -72h172q76 0 118 9q57 10 91 28q49 27 75 56q43 47 76 92l152 -90q-98 -141 -242 -211q-141 -70 -309 -70h-473z" />
<glyph unicode="&#xa5;" d="M-20 373l40 186h365v4l-45 182h-281l39 187h197l-88 373h215l106 -555l342 555h215l-249 -373h194l-39 -187h-278l-121 -182v-4h360l-41 -186h-360l-78 -373h-207l78 373h-364z" />
<glyph unicode="&#xa9;" d="M57 516q-25 98 2 229q25 115 91 218q63 100 157 178q92 78 205 121q111 43 227 43q115 0 203 -41q90 -43 152 -119q59 -74 84 -178q25 -101 0 -222q-25 -115 -88 -213q-61 -96 -154 -176q-88 -76 -200.5 -123t-233.5 -47q-113 0 -203 39t-153.5 115t-88.5 176zM121 551 q16 -82 74 -156q52 -68 135 -104q88 -39 186 -39q94 0 199 39q98 37 178 104q84 72 139 156q57 88 80 194q20 98 2 191q-18 90 -69.5 155.5t-135.5 106.5q-86 41 -184 41q-96 0 -201 -39q-96 -37 -180 -104q-80 -66 -139 -156q-57 -88 -79.5 -194.5t-4.5 -194.5zM256 602 q-12 63 4 146q16 78 55 141q43 70 97 115q63 53 129 77q76 29 159 29q205 0 269 -147l-162 -99q-27 82 -141 82q-84 0 -143.5 -55t-78.5 -143q-18 -84 17 -141.5t119 -57.5q115 0 178 82l121 -99q-129 -147 -334 -147q-82 0 -142 27q-63 29 -98 75q-37 49 -49 115z" />
<glyph unicode="&#xad;" d="M-16 385l39 186h931l-39 -186h-931z" />
<glyph unicode="&#xae;" d="M98.5 702.5q-24.5 102.5 -0.5 229.5q25 115 90 217q63 100 158 178q92 78 205 121q111 43 227.5 43t204.5 -41q90 -43 152 -119q59 -74 84 -178q23 -96 -2 -221q-23 -113 -87 -213q-65 -101 -153 -178q-84 -74 -203 -121q-117 -47 -233 -47q-106 0 -201 41 q-96 41 -156 112q-61 74 -85.5 176.5zM162 737q23 -90 74 -157q53 -70 133 -105q82 -37 186 -37q100 0 199 37q102 39 180 105q76 63 137 157q57 88 80 195q23 102 4 188q-18 88 -71.5 158t-135.5 108q-80 39 -184 39q-94 0 -199 -39q-100 -39 -180 -102q-82 -66 -141 -158 q-57 -88 -80 -194q-22 -111 -2 -195zM354 596l144 676h268q49 0 96 -12q39 -10 76 -43q29 -25 41 -70q10 -39 -2 -100q-14 -76 -57 -129.5t-129 -88.5l102 -233h-207l-74 227h-34l-50 -227h-174zM608 965h94q40 0 68 24q29 27 35 58q8 45 -8 65q-18 20 -60 21h-94z" />
<glyph unicode="&#xb4;" d="M330 1118l463 287l79 -180l-485 -244z" />
<glyph unicode="&#x2000;" horiz-adv-x="749" />
<glyph unicode="&#x2001;" horiz-adv-x="1501" />
<glyph unicode="&#x2002;" horiz-adv-x="749" />
<glyph unicode="&#x2003;" horiz-adv-x="1501" />
<glyph unicode="&#x2004;" horiz-adv-x="499" />
<glyph unicode="&#x2005;" horiz-adv-x="374" />
<glyph unicode="&#x2006;" horiz-adv-x="249" />
<glyph unicode="&#x2007;" horiz-adv-x="249" />
<glyph unicode="&#x2008;" horiz-adv-x="186" />
<glyph unicode="&#x2009;" horiz-adv-x="299" />
<glyph unicode="&#x200a;" horiz-adv-x="81" />
<glyph unicode="&#x2010;" d="M-16 385l39 186h931l-39 -186h-931z" />
<glyph unicode="&#x2011;" d="M-16 385l39 186h931l-39 -186h-931z" />
<glyph unicode="&#x2012;" d="M-16 385l39 186h931l-39 -186h-931z" />
<glyph unicode="&#x2013;" d="M-18 385l41 186h931l-41 -186h-931z" />
<glyph unicode="&#x2014;" d="M-109 385l39 186h1119l-41 -186h-1117z" />
<glyph unicode="&#x2018;" d="M418 680l57 266q16 74 45 135q29 59 88 113q59 51 133 82q72 29 183 29l-37 -172q-59 0 -103 -13q-41 -12 -71.5 -38.5t-46.5 -57.5q-12 -25 -25 -78l-4 -14h207l-53 -252h-373z" />
<glyph unicode="&#x2019;" d="M231 680l37 172q121 0 174 51q57 53 72 135l4 15h-207l54 252h372l-57 -267q-16 -74 -45 -133q-33 -68 -88 -117t-133 -79q-72 -29 -183 -29z" />
<glyph unicode="&#x201c;" d="M45 680l57 266q14 68 48 135q31 63 86 113q59 51 133 82q72 29 182 29l-37 -172q-59 0 -102 -13q-41 -12 -72 -38.5t-47 -57.5q-12 -25 -25 -78l-4 -14h207l-53 -252h-373zM604 680l58 266q16 74 45 135q29 59 88 113q59 51 133 82q72 29 182 29l-37 -172q-59 0 -102 -13 q-41 -12 -72 -39q-27 -25 -45 -57q-16 -31 -27 -78l-4 -14h207l-53 -252h-373z" />
<glyph unicode="&#x201d;" d="M45 680l37 172q121 0 174 51q53 49 72 135l4 15h-207l53 252h373l-57 -267q-16 -74 -45 -133q-33 -68 -88.5 -117t-133.5 -79q-71 -29 -182 -29zM604 680l37 172q121 0 174 51q53 49 72 135l4 15h-207l53 252h373l-57 -267q-14 -66 -47 -133q-33 -70 -86 -117 q-55 -49 -134 -79q-71 -29 -182 -29z" />
<glyph unicode="&#x2022;" d="M203 414q-14 66 4 145q16 82 59 146q49 74 105 116q61 49 135 80t151 31q76 0 138 -31q63 -31 102 -80q40 -49 55 -116q16 -68 0 -146q-18 -78 -61 -145.5t-105 -116.5q-66 -51 -137 -82q-70 -29 -149 -29q-82 0 -140 29q-59 31 -102 82q-40 49 -55 117z" />
<glyph unicode="&#x2026;" d="M-131 0l53 252h252l-53 -252h-252zM242 0l53 252h252l-53 -252h-252zM614 0l54 252h252l-54 -252h-252z" />
<glyph unicode="&#x202f;" horiz-adv-x="299" />
<glyph unicode="&#x205f;" horiz-adv-x="374" />
<glyph unicode="&#x20ac;" d="M-14 397l37 174h151q4 29 6 41q0 6 3 19.5t5 21.5q4 12 9 41q2 16 12 39h-152l37 174h172q33 88 82 164q53 82 109 135q63 59 132.5 90t155.5 31q82 0 139.5 -30.5t94.5 -86.5q33 -49 49 -133q16 -82 16 -174l-190 -37q6 143 -23 207q-31 68 -122 68q-78 0 -138 -68 q-61 -72 -100 -166h182l-37 -174h-200q-10 -23 -13 -39q0 -6 -3 -19l-5 -21.5l-5 -22t-3 -19.5q-2 -12 -6 -41h201l-37 -174h-183q-2 -96 29 -166q31 -68 111 -67q89 0 147 67q55 63 115 205l174 -37q-45 -106 -88 -174q-53 -84 -109 -133q-61 -55 -131 -86 q-66 -29 -151 -29q-83 0 -142 31q-55 29 -96 90q-35 53 -51 133q-15 77 -12 166h-172z" />
<glyph unicode="&#x2122;" d="M195 1378l22 113h465l-23 -113h-176l-96 -446h-113l97 446h-176zM659 932l119 559h158l51 -328l191 328h159l-118 -559h-111l84 393l-203 -334h-78l-57 334l-84 -393h-111z" />
<glyph unicode="&#xe000;" horiz-adv-x="930" d="M0 930h930v-930h-930v930z" />
<glyph unicode="&#xfb01;" d="M-98 0l39 186h176l119 559h-177l39 187h176q39 190 181 293q139 102 340 102q18 0 63 -4l68 -6l-39 -182q-59 6 -107 6q-88 0 -131 -11q-47 -12 -86 -38q-31 -23 -51 -66q-18 -41 -31 -94h559l-157 -746h176l-39 -186h-1118zM324 186h352l119 559h-353z" />
<glyph unicode="&#xfb02;" d="M-98 0l39 186h176l119 559h-177l39 187h176q39 190 181 293q139 102 340 102q98 0 180 -6q66 -4 143 -21l-235 -1114h176l-39 -186h-1118zM324 186h352l201 949q-43 6 -48 6h-49q-88 0 -131 -11q-47 -12 -86 -38q-31 -23 -51 -66q-18 -41 -31 -94h242l-39 -187h-242z" />
<glyph unicode="&#xfb03;" horiz-adv-x="3352" d="M2293 0l39 186h207l119 559h-207l39 187h414l-158 -746h213l-39 -186h-627zM2701 1053l53 252h252l-53 -252h-252zM1175 0l39 186h207l119 559h-207l39 187h207q39 190 180 293q139 102 340 102q18 0 63 -4l68 -6l-39 -182q-57 6 -106 6q-88 0 -131 -11q-47 -12 -86 -38 q-31 -23 -52 -66q-18 -41 -30 -94h362l-39 -187h-362l-119 -559h213l-39 -186h-627zM57 0l39 186h207l119 559h-207l39 187h207q39 190 180 293q139 102 340 102q18 0 63 -4l68 -6l-39 -182q-57 6 -106 6q-88 0 -131 -11q-47 -12 -86 -38q-31 -23 -52 -66q-18 -41 -30 -94 h362l-39 -187h-362l-119 -559h213l-39 -186h-627z" />
<glyph unicode="&#xfb04;" horiz-adv-x="3352" d="M2295 0l39 186h205l199 932h-205l39 187h412l-238 -1119h215l-39 -186h-627zM1175 0l39 186h207l119 559h-207l39 187h207q39 190 180 293q139 102 340 102q18 0 63 -4l68 -6l-39 -182q-57 6 -106 6q-88 0 -131 -11q-47 -12 -86 -38q-31 -23 -52 -66q-18 -41 -30 -94h362 l-39 -187h-362l-119 -559h213l-39 -186h-627zM57 0l39 186h207l119 559h-207l39 187h207q39 190 180 293q139 102 340 102q18 0 63 -4l68 -6l-39 -182q-57 6 -106 6q-88 0 -131 -11q-47 -12 -86 -38q-31 -23 -52 -66q-18 -41 -30 -94h362l-39 -187h-362l-119 -559h213 l-39 -186h-627z" />
</font>
</defs>
</svg>
